Welcome Guest ( Log In | Register )

 
ОтветитьСоздать новую тему
> Sulphur Sun - Vitreous [single] (2017), Progressive/Technical Death Metal
post Sep 13 2017, 11:42:47
Post #1

Аннигилятор пивА
Group Icon
Group: V.I.P
Posts: 45,729
Releases: 13651
From: Koenigsberg - TILZIT
On Forums: 11 years 8 months
Thanks: 302097 time(s)
Russian Federation


(IMG:https://metalarea.org/images/audiocovers/2017_Sep/acov_tid294532_thumb.jpg)

*Artist: Sulphur Sun
*Album: Vitreous [single]
*Year: 2017
*Genre: Progressive/Technical Death Metal
*Country: Switzerland (IMG:https://metalarea.org/forum/style_images/flags/Switzerland.png)
*Format: mp3@CBR320kbps
*Size: 15MB

Tracklist:
1. Vitreous 06:35
******************************
Total playing time: 6:35




Extended info
M.S. Vocals
S.U. Drums
K.S. Guitars
P.K. Bass


Technical info
(IMG:https://metalarea.org/images/spectrogram/2017_Sep/02acf829e9bf1a43fedce492644dc8a9.png)
Input File: Sulphur Sun - Vitreous.mp3
Channels : 2
Sample Rate : 44100
Precision : 16-bit
Duration : 00:06:35.51 = 17441903 samples = 29663.1 CDDA sectors
File Size : 15.9M
Bit Rate : 322k
Sample Encoding: MPEG audio (layer I, II or III)
Comments :
Title=Vitreous
Artist=Sulphur Sun
Year=2017



Register


Вернуться к началу страницы
  Insert nick Quick quote
+Цитировать сообщение

ОтветитьСоздать новую тему
1 User(s) are reading this topic (1 Guests and 0 Anonymous Users)
0 Members:

 



- Lo-Fi Version Support form
Copyrights and abuse reports form
Time is now: 19th February 2018 - 16:52:23