Welcome Guest ( Log In | Register )

> Правила / Rules

Тут только для чтения лежат низкобитрейтные (<192kbps) релизы, для которых есть аналоги в высокобитрейтных форумах.

Here goes (and stand in read only mode) low bitrate releases (<192kbps) which were already replaced by high bitrate releases in corresponding forums.

> Leichenzug - Schwarz (2017), Black Metal (D)
post Sep 13 2017, 11:50:38
Post #1

Три Литра
***
Group: Завсегдатай
Posts: 261
Releases: 5
From: Подольск
On Forums: 8 years 8 months
Thanks: 230 time(s)
Russian Federation


(IMG:http://metalarea.org/images/audiocovers/2017_Sep/acov_tid294533_thumb.jpg)

*Artist: Leichenzug
*Album: Schwarz
*Year: 2017
*Genre: Black Metal
*Country: Germany (IMG:http://metalarea.org/forum/style_images/flags/Germany.png)
*Format: mp3@CBR320kbps
*Size: 133MB

Tracklist:
1. Anbruch der Finsternis - Die neue Ordnung 07:01
2. Der Hammer zerschmettert... 04:35
3. Schwarz - Scharzes Metall 07:58
4. Meisterwerk IV 04:16
5. Winterwald 07:07
6. Herren der See 04:12
7. Heuchlerbrut 04:39
8. Kriegerschicksal I 03:53
9. Kriegerschicksal II 04:23
10. Kriegerschicksal III 06:25
11. Götter des Donners, von Regen und Wind 05:11
******************************
Total playing time: 59:40

(IMG:http://metalarea.org/images/youtube.png)

Extended info
На метал-архивах обозначено, что в альбоме 13 треков. Может быть, там и правы. А у меня вот два сдвоенных трека, так что всего 11. Может быть, я тоже прав. Но вы слушайте, не заморачивайтесь.


Technical info
(IMG:http://metalarea.org/images/spectrogram/2017_Sep/d6c2978f7ce4dca8af88595b1b9ac9cd.png)
Input File: 01. Leichenzug - Anbruch der Finsternis–Die neue Ordnung.mp3
Channels : 2
Sample Rate : 44100
Precision : 16-bit
Duration : 00:07:01.85 = 18603629 samples = 31638.8 CDDA sectors
File Size : 16.9M
Bit Rate : 321k
Sample Encoding: MPEG audio (layer I, II or III)
Comments :
Title=Anbruch der Finsternis / Die neue Ordnung
Artist=Leichenzug ‎
Album=Schwarz
Tracknumber=01/11
Year=2017
Genre=Other



Register

Register


Вернуться к началу страницы
  Insert nick Quick quote
+Цитировать сообщение
 
Создать новую тему
Replies (1 - 1)
post Sep 17 2017, 00:28:02
Post #2
BAN
Banned till
Feb 20 2018, 11:44:13



Лютейший, пожалуй самый разнообразный альбом из всей его дискографии.

Средневековое мракобесие пронизывается маршевым пулемётным напором, а потом улетает ввысь былинностью под акустику.

Материал высший, впрочем иного и не ожидалось.
Вернуться к началу страницы
  Insert nick Quick quote
+Цитировать сообщение

Причина закрытия (DarkHorde 20-09-2017): Leichenzug - Schwarz (2017)
Тема закрытаСоздать новую тему
1 User(s) are reading this topic (1 Guests and 0 Anonymous Users)
0 Members:

 



- Lo-Fi Version Support form
Copyrights and abuse reports form
Time is now: 20th February 2018 - 01:01:14