Welcome Guest ( Log In | Register )

 
Reply to this topicStart new topic
> Flayed Then Impaled - Grotesque Head Removal [ep] (2017), Brutal Death Metal/Goregrind
post Sep 13 2017, 12:21:32
Post #1

Serial Uploader
Group Icon
Group: V.I.P
Posts: 32,736
Releases: 31034
From: Lithuania
On Forums: 10 years 2 weeks
Thanks: 355753 time(s)
Lithuania


(IMG:http://metalarea.org/images/audiocovers/2017_Sep/acov_tid294538_thumb.jpg)

*Artist: Flayed Then Impaled
*Album: Grotesque Head Removal [ep]
*Year: 2017
*Genre: Brutal Death Metal/Goregrind
*Country: United States (IMG:http://metalarea.org/forum/style_images/flags/United%20States.png)
*Format: mp3@CBR320kbps
*Size: 19MB

Tracklist:
01. Ingesting Pure Spinal Fluid 02:21
02. Lungs Quickly Filling With Blood 00:59
03. Blunt Force Trauma Resulting In Permanent Brain Damage 02:15
04. Grotesque Head Removal 02:28
******************************
Total playing time: 8:03



Technical info
(IMG:http://metalarea.org/images/spectrogram/2017_Sep/448665c61b7489cc0543f522e0dfd311.png)
Input File: 02. Lungs Quickly Filling with Blood.mp3
Channels : 2
Sample Rate : 44100
Precision : 16-bit
Duration : 00:00:59.93 = 2642913 samples = 4494.75 CDDA sectors
File Size : 2.58M
Bit Rate : 344k
Sample Encoding: MPEG audio (layer I, II or III)
Comments :
Title=Lungs Quickly Filling with Blood
Artist=Flayed Then Impaled
Album=Grotesque Head Removal EP
Tracknumber=2
Year=2017



Register


Go to the top of the page
  Insert nick Quick quote
+Quote Post

Reply to this topicStart new topic
1 User(s) are reading this topic (1 Guests and 0 Anonymous Users)
0 Members:

 



- Lo-Fi Version Support form
Copyrights and abuse reports form
Time is now: 23rd June 2018 - 11:14:06