Welcome Guest ( Log In | Register )

 
ОтветитьСоздать новую тему
> Pestilent & Gorepot & $lutrot & Embryonic Decay - $lam $eason [split] (2017), Brutal Death Metal | Brutal Death Metal/Grindcore | Brutal Death Metal
post Sep 13 2017, 12:47:24
Post #1

Serial Uploader
Group Icon
Group: V.I.P
Posts: 31,402
Releases: 29737
From: Lithuania
On Forums: 9 years 8 months
Thanks: 341542 time(s)
Lithuania


(IMG:http://metalarea.org/images/audiocovers/2017_Sep/acov_tid294540_thumb.jpg)

*Artist: Pestilent & Gorepot & $lutrot & Embryonic Decay
*Album: $lam $eason [split]
*Year: 2017
*Genre: Brutal Death Metal | Brutal Death Metal/Grindcore | Brutal Death Metal | Brutal Death Metal
*Country: Netherlands (IMG:http://metalarea.org/forum/style_images/flags/Netherlands.png) | Taiwan (IMG:http://metalarea.org/forum/style_images/flags/Taiwan.png) | United States (IMG:http://metalarea.org/forum/style_images/flags/United%20States.png) | United States (IMG:http://metalarea.org/forum/style_images/flags/United%20States.png)
*Format: mp3@CBR320kbps
*Size: 80MB

Tracklist:
Pestilent:
01. Barbarous Pitchfork Impalement 03:10
02. Pulverized Septic Remnants 02:35
03. Simian Slam 02:03
Gorepot:
04. Japanese Pop Is Jpop; Chinese Rap Is Crap 02:37
05. Anton, Do You Think I’m A Bad Mother? Mom, My Name Is Paul 02:48
06. I'm Emotionally Constipated, I Haven't Given A Shit In Days 02:13
07. A Naked Woman Robbed A Bank... Nobody Could Remember Her Face 02:48
$lutrot:
08. Designed To Enemate 03:21
09. Hacked Up Cunt In The Hallway 02:40
10. $lit The $lut 03:10
Embryonic Decay:
11. Divulging Respiratory Failure 02:13
12. Parental Advised Suicide 02:09
13. Cesspool Orgy Of Corpses 02:05
******************************
Total playing time: 33:52






Technical info
(IMG:http://metalarea.org/images/spectrogram/2017_Sep/f6ee2d1bde7297bac4bfd1783dc5a6da.png)
Input File: 02. Pulverized Septic Remnants.mp3
Channels : 2
Sample Rate : 44100
Precision : 16-bit
Duration : 00:02:35.57 = 6860769 samples = 11668 CDDA sectors
File Size : 6.40M
Bit Rate : 329k
Sample Encoding: MPEG audio (layer I, II or III)
Comments :
Title=Pestilent ‒ Pulverized Septic Remnants
Artist=Pestilent
Album=$LAM $EASON
Tracknumber=2
Year=2017



Register


Вернуться к началу страницы
  Insert nick Quick quote
+Цитировать сообщение

ОтветитьСоздать новую тему
1 User(s) are reading this topic (1 Guests and 0 Anonymous Users)
0 Members:

 



- Lo-Fi Version Support form
Copyrights and abuse reports form
Time is now: 20th February 2018 - 01:10:22