Welcome Guest ( Log In | Register )

 
Reply to this topicStart new topic
> Cain Will Rise - Е.К. [single] (2017), Epic Doom/Death Metal
post Sep 13 2017, 12:50:17
Post #1

Правь статус, ####!111
**************
Group: Металариец
Posts: 2,011
Releases: 23
From: Nakhodka
On Forums: 8 years 2 weeks
Thanks: 1560 time(s)
Russian Federation


(IMG:https://metalarea.org/images/audiocovers/2017_Sep/acov_tid294541_thumb.jpg)

*Artist: Cain Will Rise
*Album: Е.К. [single]
*Year: 2017
*Genre: Epic Doom/Death Metal
*Country: Russian Federation (IMG:https://metalarea.org/forum/style_images/flags/Russian%20Federation.png)
*Format: mp3@CBR320kbps
*Size: 18MB

Tracklist:
01 Е.К.
02 Black Spell of Destruction (Burzum cover)
******************************
Total playing time: 7:52

Preview 1

Extended info
Cain - Guitar/Vocal
Azai - Bass/Vocal
г. Хабаровск


Technical info
(IMG:https://metalarea.org/images/spectrogram/2017_Sep/a2754eefe90271b767d4a66659920916.png)
Input File: 01 E.K..mp3
Channels : 2
Sample Rate : 48000
Precision : 16-bit
Duration : 00:03:38.47 = 10486800 samples ~ 16385.6 CDDA sectors
File Size : 8.74M
Bit Rate : 320k
Sample Encoding: MPEG audio (layer I, II or III)
Comments :
Title=E.K.
Artist=Cain Will Rise
Album=E.K. (Single)
Tracknumber=1
Year=2017
Genre=Doom\Death Metal



Register


Thanks:
Go to the top of the page
  Insert nick Quick quote
+Quote Post

Reply to this topicStart new topic
1 User(s) are reading this topic (1 Guests and 0 Anonymous Users)
0 Members:

 



- Lo-Fi Version Support form
Copyrights and abuse reports form
Time is now: 20th June 2018 - 18:02:57