Welcome Guest ( Log In | Register )

 
Reply to this topicStart new topic
> Reapers Row - Sixtus [ep] (2017), Hardcore/Thrash/Groove Metal
post Sep 13 2017, 13:41:59
Post #1

Шесть Литров
******
Group: Металариец
Posts: 672
Releases: 231
From: Саранск
On Forums: 7 years 1 month
Thanks: 1727 time(s)
Russian Federation


(IMG:https://metalarea.org/images/audiocovers/2017_Sep/acov_tid294543_thumb.jpg)

*Artist: Reapers Row
*Album: Sixtus [ep]
*Year: 2017
*Genre: Hardcore/Thrash/Groove Metal
*Country: United States (IMG:https://metalarea.org/forum/style_images/flags/United%20States.png)
*Format: mp3@CBR320kbps
*Size: 47MB

Tracklist:
01. Reapers Row 00:43
02. Brain Damage 03:39
03. Pit of Despair 02:40
04. Cold Love 03:01
05. Spellbound 02:37
06. My Disease 04:07
07. Worn Feet 02:47
******************************
Total playing time: 19:34




Technical info
(IMG:https://metalarea.org/images/spectrogram/2017_Sep/0f65da002c78a0c04097faeeab0b71a3.png)
Input File: 06 My Disease.mp3
Channels : 2
Sample Rate : 44100
Precision : 16-bit
Duration : 00:04:07.72 = 10924276 samples = 18578.7 CDDA sectors
File Size : 10.0M
Bit Rate : 324k
Sample Encoding: MPEG audio (layer I, II or III)
Comments :
Title=My Disease
Artist=Reapers Row
Album=Sixtus (2017)
Tracknumber=6
Year=2017



Register


Go to the top of the page
  Insert nick Quick quote
+Quote Post

Reply to this topicStart new topic
1 User(s) are reading this topic (1 Guests and 0 Anonymous Users)
0 Members:

 



- Lo-Fi Version Support form
Copyrights and abuse reports form
Time is now: 23rd June 2018 - 11:14:39