Welcome Guest ( Log In | Register )

> Cell - The Frozen Moon Of Erebath (2016), Black Metal
post Sep 13 2017, 13:43:41
Post #1

Правь статус, ####!111
**************
Group: Металариец
Posts: 14,321
Releases: 9928
From: Г.Харьков
On Forums: 6 years 4 months
Thanks: 162959 time(s)
Unknown


(IMG:https://metalarea.org/images/audiocovers/2017_Sep/acov_tid294544_thumb.jpg)

*Artist: Cell
*Album: The Frozen Moon Of Erebath
*Year: 2016
*Genre: Black Metal
*Country: Canada (IMG:https://metalarea.org/forum/style_images/flags/Canada.png)
*Format: mp3@CBR320kbps
*Size: 90MB

Tracklist:
1. Gateway To Erebath
2. Drained And Lifeless
3. Cosmic Portal Ov Hell
4. Symbiotic Parasite
5. Celestial Hybrid
6. The Infinity Gauntlet
7. Erasing The Plain Of Existence
8. Infinite Flux
9. Rage Upon The Celestial Effigy Of Infinity, Time And Space
******************************
Total playing time: 39:00



Technical info
(IMG:https://metalarea.org/images/spectrogram/2017_Sep/65e24ca31bb093a06a599ba2b8f17bf2.png)
Input File: 3 - Cosmic Portal Ov Hell.mp3
Channels : 2
Sample Rate : 44100
Precision : 16-bit
Duration : 00:04:03.38 = 10732882 samples = 18253.2 CDDA sectors
File Size : 9.86M
Bit Rate : 324k
Sample Encoding: MPEG audio (layer I, II or III)
Comments :
Title=Cosmic Portal Ov Hell
Artist=Cell
Album=The Frozen Moon of Erebath
Tracknumber=3/9
Year=2016



Register


Go to the top of the page
  Insert nick Quick quote
+Quote Post
 
Start new topic
Replies (1 - 1)
post Sep 14 2017, 04:11:28
Post #2

Ъ
**************
Group: Металариец
Posts: 9,172
Releases: 9
On Forums: 9 years 8 months
Thanks: 1752 time(s)
Sweden


Послушал пару треков, не космос, а скука смертная (хотя космос по сути смертельный и не сильно динамичный по мерам людской суеты (IMG:style_emoticons/default/crazy.gif) ).
Go to the top of the page
  Insert nick Quick quote
+Quote Post

Reply to this topicStart new topic
1 User(s) are reading this topic (1 Guests and 0 Anonymous Users)
0 Members:

 



- Lo-Fi Version Support form
Copyrights and abuse reports form
Time is now: 25th September 2018 - 01:04:33