Welcome Guest ( Log In | Register )

> Revenge - Soldiers Under Satan's Command [best of/compilation] (2014), Speed/Heavy Metal (D)
post Sep 13 2017, 13:48:58
Post #1

Правь статус, ####!616
**************
Group: Металариец
Posts: 4,398
Releases: 3004
From: 55°35’N 38°08’E
On Forums: 9 years 11 months
Thanks: 55882 time(s)
Unknown


(IMG:http://metalarea.org/images/audiocovers/2017_Sep/acov_tid294545_thumb.jpg)

*Artist: Revenge
*Album: Soldiers Under Satan's Command [best of/compilation]
*Year: 2014
*Genre: Speed/Heavy Metal
*Country: Colombia (IMG:http://metalarea.org/forum/style_images/flags/Colombia.png)
*Format: mp3@CBR320kbps
*Size: 151MB

Tracklist:
1. March of Death (Intro) 01:02
2. Metal & Wild 05:09
3. Satan's Soldiers 04:47
4. The Ritualist 03:47
5. Bang Your Head 04:16
6. Whipping Death 02:47
7. The Tombstones Screams 03:55
8. Metal Warriors 05:13
9. Rising Forces (Live) 03:48
10. War Allies (Live) 04:20
11. Heavy Infection 05:43
12. Infernal Angels 05:06
13. Endless Nightmare 03:53
14. Heavy Metal Maniac 04:01
15. Bloody Revenge 06:12
******************************
Total playing time: 1:03:59




Extended info
Tracks 1-4: Soldiers Under Satan's Command EP.
Tracks 5-10: Bang your Head EP.
Tracks 11-15: Infernal Angels Demo.

+scans


Technical info
(IMG:http://metalarea.org/images/spectrogram/2017_Sep/c40bbabbe55a8b4cb95e75599c5a8ef2.png)
Input File: 02 Metal & Wild.mp3
Channels : 2
Sample Rate : 44100
Precision : 16-bit
Duration : 00:05:07.08 = 13542008 samples = 23030.6 CDDA sectors
File Size : 12.4M
Bit Rate : 322k
Sample Encoding: MPEG audio (layer I, II or III)
Comments :
Title=Metal & Wild
Artist=Revenge
Album=Soldiers Under Satan's Command
Tracknumber=2
Year=2014
Genre=Speed/Heavy Metal



Register


Go to the top of the page
  Insert nick Quick quote
+Quote Post
 
Start new topic
Replies (1 - 1)
post Sep 14 2017, 08:07:06
Post #2
BAN
Banned till
Jul 5 2291, 15:15:40



Клаасная банда, с Родины Пабло Эскабара!
Go to the top of the page
  Insert nick Quick quote
+Quote Post

Reply to this topicStart new topic
1 User(s) are reading this topic (1 Guests and 0 Anonymous Users)
0 Members:

 



- Lo-Fi Version Support form
Copyrights and abuse reports form
Time is now: 23rd June 2018 - 11:15:13