Welcome Guest ( Log In | Register )

> Cain - Into Abyss (2017), Old School Thrash/Death Metal (D10)
post Sep 13 2017, 13:55:04
Post #1

Правь статус, ####!111
**************
Group: Металариец
Posts: 12,191
Releases: 8807
From: Г.Харьков
On Forums: 5 years 9 months
Thanks: 141002 time(s)
Unknown


(IMG:https://metalarea.org/images/audiocovers/2017_Sep/acov_tid294546_thumb.jpg)

*Artist: Cain
*Album: Into Abyss
*Year: 2017
*Genre: Old School Thrash/Death Metal
*Country: United States (IMG:https://metalarea.org/forum/style_images/flags/United%20States.png)
*Format: mp3@CBR320kbps
*Size: 103MB

Tracklist:
1. Necronomicon 02:50
2. Evilution 07:52
3. The Necromancer 04:44
4. Yokai! 02:47
5. Cyber Humans 05:38
6. In Hell 07:30
7. Into Abyss 13:01
******************************
Total playing time: 44:22




Extended info


Technical info
(IMG:https://metalarea.org/images/spectrogram/2017_Sep/cb3c9668c18f45a17a737782b83930f2.png)
Input File: 02 Evilution.mp3
Channels : 2
Sample Rate : 44100
Precision : 16-bit
Duration : 00:07:52.26 = 20826622 samples = 35419.4 CDDA sectors
File Size : 19.1M
Bit Rate : 323k
Sample Encoding: MPEG audio (layer I, II or III)
Comments :
Title=Evilution
Artist=Cain
Album=Into Abyss
Tracknumber=2
Year=2017



Register


Вернуться к началу страницы
  Insert nick Quick quote
+Цитировать сообщение
 
Создать новую тему
Replies (1 - 3)
post Sep 13 2017, 16:55:55
Post #2

Правь статус, ####!111
**************
Group: Металариец
Posts: 12,191
Releases: 8807
From: Г.Харьков
On Forums: 5 years 9 months
Thanks: 141002 time(s)
Unknown


Register


Вернуться к началу страницы
  Insert nick Quick quote
+Цитировать сообщение
post Sep 17 2017, 20:45:43
Post #3

Аполітичний
**************
Group: Металариец
Posts: 4,953
Releases: 143
From: Тимчасово окупована територія - Юзівка
On Forums: 9 years 5 months
Thanks: 5177 time(s)
Ukraine


Бодро и олдово.


Thanks:
(1) DarkHorde,
Вернуться к началу страницы
  Insert nick Quick quote
+Цитировать сообщение
post Sep 18 2017, 01:56:00
Post #4

\m/
Group Icon
Group: S-moderation team
Posts: 7,340
Releases: 19
From: Петропавловск-Камчатский
On Forums: 8 years 8 months
Thanks: 6489 time(s)
Russian Federation


Да, здорово рубят (IMG:style_emoticons/default/metaler.gif)
Вернуться к началу страницы
  Insert nick Quick quote
+Цитировать сообщение

ОтветитьСоздать новую тему
1 User(s) are reading this topic (1 Guests and 0 Anonymous Users)
0 Members:

 



- Lo-Fi Version Support form
Copyrights and abuse reports form
Time is now: 20th February 2018 - 01:10:28