Welcome Guest ( Log In | Register )

> Sinistra Project - MMXVII (2017), Melodic Death Metal
post Sep 13 2017, 14:02:05
Post #1

Аннигилятор пивА
Group Icon
Group: V.I.P
Posts: 45,735
Releases: 13651
From: Koenigsberg - TILZIT
On Forums: 11 years 8 months
Thanks: 302128 time(s)
Russian Federation


(IMG:https://metalarea.org/images/audiocovers/2017_Sep/acov_tid294547_thumb.jpg)

*Artist: Sinistra Project
*Album: MMXVII
*Year: 2017
*Genre: Melodic Death Metal
*Country: Sweden (IMG:https://metalarea.org/forum/style_images/flags/Sweden.png)
*Format: mp3@CBR320kbps
*Size: 111MB

Tracklist:
1. Intro 01:46
2. Control 04:15
3. Blood For Blood 05:03
4. Scars 05:21
5. Monster 05:35
6. No Mercy 04:15
7. World Destroyer 06:52
8. Legion 08:49
9. Broken 06:20
******************************
Total playing time: 48:16




Extended info
swedish melodic death metal
Recorded and produced at Death Recycle Studio, Stockholm Sweden
Tore Öyen: Music (ex-Scars, ex-Votary, Hercolubus, ex-Hostile Reaction, ex-Kako Daimon, ex-Blackmountain Project, ex-Secrecy, ex-Sinistra)
Emil Sloberg: Vocals


Technical info
(IMG:https://metalarea.org/images/spectrogram/2017_Sep/29829f733afdf917221d751cfaaf1a82.png)
Input File: 02. Control.mp3
Channels : 2
Sample Rate : 44100
Precision : 16-bit
Duration : 00:04:15.84 = 11282588 samples = 19188.1 CDDA sectors
File Size : 10.4M
Bit Rate : 324k
Sample Encoding: MPEG audio (layer I, II or III)
Comments :
Title=Control
Artist=Sinistra Project
Album=MMXVII
Tracknumber=2
Genre=п»їР РѕРє
Discnumber=1



Register


Вернуться к началу страницы
  Insert nick Quick quote
+Цитировать сообщение
 
Создать новую тему
Replies (1 - 4)
post Sep 13 2017, 16:54:44
Post #2

Аннигилятор пивА
Group Icon
Group: V.I.P
Posts: 45,735
Releases: 13651
From: Koenigsberg - TILZIT
On Forums: 11 years 8 months
Thanks: 302128 time(s)
Russian Federation


mirror
Register


Вернуться к началу страницы
  Insert nick Quick quote
+Цитировать сообщение
post Sep 14 2017, 07:46:46
Post #3

Ъ
**************
Group: Металариец
Posts: 8,944
Releases: 9
On Forums: 9 years 1 month
Thanks: 1661 time(s)
Sweden


Очень даже неплохой третьесорт, на второй круг пошел.


Thanks:
Вернуться к началу страницы
  Insert nick Quick quote
+Цитировать сообщение
post Sep 14 2017, 07:58:56
Post #4

Аннигилятор пивА
Group Icon
Group: V.I.P
Posts: 45,735
Releases: 13651
From: Koenigsberg - TILZIT
On Forums: 11 years 8 months
Thanks: 302128 time(s)
Russian Federation


ЦИТАТА(DenisKov @ Sep 14 2017, 06:46:46) *
Очень даже неплохой третьесорт, на второй круг пошел.

Мне местами сильно напомнил хипокриси времен перехода в пэйн, ну тока тут гроул помощнее и звук более дэто-шведский
Вернуться к началу страницы
  Insert nick Quick quote
+Цитировать сообщение
post Sep 14 2017, 10:32:20
Post #5

Ъ
**************
Group: Металариец
Posts: 8,944
Releases: 9
On Forums: 9 years 1 month
Thanks: 1661 time(s)
Sweden


Сабж звучит посовременнее подинамичнее, если ты конечно о Хипокриси конца 90х.
Вернуться к началу страницы
  Insert nick Quick quote
+Цитировать сообщение

ОтветитьСоздать новую тему
1 User(s) are reading this topic (1 Guests and 0 Anonymous Users)
0 Members:

 



- Lo-Fi Version Support form
Copyrights and abuse reports form
Time is now: 20th February 2018 - 01:11:15