Welcome Guest ( Log In | Register )

> Maniaxe - Sacrificial [ep] (2013), Old School Thrash Metal
post Sep 13 2017, 14:02:15
Post #1

Правь статус, ####!616
**************
Group: Металариец
Posts: 4,398
Releases: 3004
From: 55°35’N 38°08’E
On Forums: 9 years 11 months
Thanks: 55883 time(s)
Unknown


(IMG:http://metalarea.org/images/audiocovers/2017_Sep/acov_tid294548_thumb.jpg)

*Artist: Maniaxe
*Album: Sacrificial [ep]
*Year: 2013
*Genre: Old School Thrash Metal
*Country: Australia (IMG:http://metalarea.org/forum/style_images/flags/Australia.png)
*Format: mp3@CBR320kbps
*Size: 41MB

Tracklist:
1. Intro (Teufelstanz) 01:08
2. Sermon of Hate 01:35
3. God Save the Antichrist 04:15
4. Sadastic Madness 05:09
5. Termination 04:21
******************************
Total playing time: 16:28


(IMG:http://metalarea.org/images/youtube.png)

Extended info
+ scans


Technical info
(IMG:http://metalarea.org/images/spectrogram/2017_Sep/9d2f55966db86bcea93118f7206047c8.png)
Input File: 02 Sermon of Hate.mp3
Channels : 2
Sample Rate : 44100
Precision : 16-bit
Duration : 00:01:35.28 = 4201848 samples = 7146 CDDA sectors
File Size : 3.92M
Bit Rate : 329k
Sample Encoding: MPEG audio (layer I, II or III)
Comments :
Title=Sermon of Hate
Artist=Maniaxe
Album=Sacrificial
Tracknumber=2
Year=2013
Genre=Thrash Metal



Register


Go to the top of the page
  Insert nick Quick quote
+Quote Post
 
Start new topic
Replies (1 - 1)
post Sep 13 2017, 18:22:25
Post #2

Шесть Литров
******
Group: Металариец
Posts: 637
Releases: 0
From: Одесса-мама
On Forums: 9 years 5 months
Thanks: 188 time(s)
Ukraine


Спасибо, порадовал!
(IMG:style_emoticons/default/metaler.gif) (IMG:style_emoticons/default/metaler.gif) (IMG:style_emoticons/default/metaler.gif)
Go to the top of the page
  Insert nick Quick quote
+Quote Post

Reply to this topicStart new topic
1 User(s) are reading this topic (1 Guests and 0 Anonymous Users)
0 Members:

 



- Lo-Fi Version Support form
Copyrights and abuse reports form
Time is now: 23rd June 2018 - 11:28:54