Welcome Guest ( Log In | Register )

 
ОтветитьСоздать новую тему
> Gravsatt - Gravsatt [demo] (2014), Black Metal
post Sep 13 2017, 14:13:02
Post #1

Angel Eviscerator
**************
Group: Металариец
Posts: 4,007
Releases: 2684
From: 55°35’N 38°08’E
On Forums: 9 years 7 months
Thanks: 51348 time(s)
Russian Federation


(IMG:http://metalarea.org/images/audiocovers/2017_Sep/acov_tid294549_thumb.jpg)

*Artist: Gravsatt
*Album: Gravsatt [demo]
*Year: 2014
*Genre: Black Metal
*Country: Sweden (IMG:http://metalarea.org/forum/style_images/flags/Sweden.png)
*Format: mp3@CBR320kbps
*Size: 62MB

Tracklist:
1.I 05:43
2.II 05:07
3.III 05:53
4.IV 05:07
5.V 05:25
******************************
Total playing time: 27:15




Technical info
(IMG:http://metalarea.org/images/spectrogram/2017_Sep/f298f3486faef719055f288df03ac56d.png)
Input File: 01 I.mp3
Channels : 2
Sample Rate : 44100
Precision : 16-bit
Duration : 00:05:43.91 = 15166475 samples = 25793.3 CDDA sectors
File Size : 13.8M
Bit Rate : 321k
Sample Encoding: MPEG audio (layer I, II or III)
Comments :
Title=I
Artist=Gravsatt
Album=Gravsatt
Tracknumber=1
Year=2014
Genre=Black Metal



Register


Вернуться к началу страницы
  Insert nick Quick quote
+Цитировать сообщение

ОтветитьСоздать новую тему
1 User(s) are reading this topic (1 Guests and 0 Anonymous Users)
0 Members:

 



- Lo-Fi Version Support form
Copyrights and abuse reports form
Time is now: 20th February 2018 - 01:11:09