Welcome Guest ( Log In | Register )

 
ОтветитьСоздать новую тему
> Atra Mors - I Doni Del Suicidio [ep] (2016), Black Metal (D4)
post Sep 13 2017, 14:26:48
Post #1

Angel Eviscerator
**************
Group: Металариец
Posts: 4,007
Releases: 2684
From: 55°35’N 38°08’E
On Forums: 9 years 7 months
Thanks: 51348 time(s)
Russian Federation


(IMG:http://metalarea.org/images/audiocovers/2017_Sep/acov_tid294551_thumb.jpg)

*Artist: Atra Mors
*Album: I Doni Del Suicidio [ep]
*Year: 2016
*Genre: Black Metal
*Country: Italy (IMG:http://metalarea.org/forum/style_images/flags/Italy.png)
*Format: mp3@CBR320kbps
*Size: 54MB

Tracklist:
1. Spettrale Apparizione Davanti Ai Miei Occhi 05:23
2. I Doni Del Suicidio (Lacrime E Perdizione) 05:47
3. Black Metal Is A Spiritual Dark Catharsis 05:37
4. Le Profonditа Del Buio E Della Sofferenza 07:04
******************************
Total playing time: 23:51




Technical info
(IMG:http://metalarea.org/images/spectrogram/2017_Sep/2a6fad7dda44b95fbe69370a8d0cce56.png)
Input File: 01 Spettrale Apparizione Davanti Ai Miei Occhi.mp3
Channels : 2
Sample Rate : 44100
Precision : 16-bit
Duration : 00:05:26.45 = 14396621 samples = 24484 CDDA sectors
File Size : 13.1M
Bit Rate : 320k
Sample Encoding: MPEG audio (layer I, II or III)
Comments :
Title=Spettrale Apparizione Davanti Ai Miei Occhi
Artist=Atra Mors
Album=I Doni Del Suicidio
Tracknumber=1
Year=2016
Genre=Black Metal



Register


Вернуться к началу страницы
  Insert nick Quick quote
+Цитировать сообщение

ОтветитьСоздать новую тему
1 User(s) are reading this topic (1 Guests and 0 Anonymous Users)
0 Members:

 



- Lo-Fi Version Support form
Copyrights and abuse reports form
Time is now: 20th February 2018 - 01:11:27