Welcome Guest ( Log In | Register )

> Cremation - In The Maelstrom Of Time (2017), Death Metal (D)
post Sep 13 2017, 15:08:52
Post #1

Правь статус, ####!111
**************
Group: Металариец
Posts: 12,191
Releases: 8807
From: Г.Харьков
On Forums: 5 years 9 months
Thanks: 141002 time(s)
Unknown


(IMG:https://metalarea.org/images/audiocovers/2017_Sep/acov_tid294556_thumb.jpg)

*Artist: Cremation
*Album: In The Maelstrom Of Time
*Year: 2017
*Genre: Death Metal
*Country: Switzerland (IMG:https://metalarea.org/forum/style_images/flags/Switzerland.png)
*Format: mp3@CBR320kbps
*Size: 178MB

Tracklist:
01. Maelstrom
02. Collision Course
03. Jousting With the Psyche
04. Black Hole
05. Thoughtseize
06. Arithmomania
07. Burnt by the Light
08. U.S.T.
09. Wastelands
10. Cremation F.T.A
11. Freddy K
12. Never Ending War
13. My Labyrinth
14. Dead but Still Conscious
15. Brainwashed by Religion
16. Murderous Thoughts
17. Are You Afraid?
18. Bastardo
******************************
Total playing time: 1:17:49



Extended info


Technical info
(IMG:https://metalarea.org/images/spectrogram/2017_Sep/26c9d71a5e70d6bd193736ecab24f5c9.png)
Input File: 02. Collision Course.mp3
Channels : 2
Sample Rate : 44100
Precision : 16-bit
Duration : 00:06:03.17 = 16015577 samples = 27237.4 CDDA sectors
File Size : 14.6M
Bit Rate : 321k
Sample Encoding: MPEG audio (layer I, II or III)
Comments :
Title=Collision Course
Artist=Cremation
Album=In the Maelstrom of Time
Tracknumber=2/18
Year=2017



Register


Вернуться к началу страницы
  Insert nick Quick quote
+Цитировать сообщение
 
Создать новую тему
Replies (1 - 5)
post Sep 13 2017, 17:00:37
Post #2

Правь статус, ####!111
**************
Group: Металариец
Posts: 12,191
Releases: 8807
From: Г.Харьков
On Forums: 5 years 9 months
Thanks: 141002 time(s)
Unknown


Register


Вернуться к началу страницы
  Insert nick Quick quote
+Цитировать сообщение
post Sep 13 2017, 17:08:21
Post #3

Аннигилятор пивА
Group Icon
Group: V.I.P
Posts: 45,735
Releases: 13651
From: Koenigsberg - TILZIT
On Forums: 11 years 8 months
Thanks: 302128 time(s)
Russian Federation


смахивает на компиляцию, куча трэков навскидку знакома по прошлым альбомам
Вернуться к началу страницы
  Insert nick Quick quote
+Цитировать сообщение
post Sep 13 2017, 17:12:49
Post #4

Правь статус, ####!111
**************
Group: Металариец
Posts: 12,191
Releases: 8807
From: Г.Харьков
On Forums: 5 years 9 months
Thanks: 141002 time(s)
Unknown


ЦИТАТА(aesteticvice @ 13th September 2017 - 17:08:21) *
куча трэков навскидку знакома по прошлым альбомам

ну так и новые есть(в отличие от твоего нового Strikemaster (IMG:style_emoticons/default/1488.gif) )На фейсбуке пишут что новый двойной альбом.
Вернуться к началу страницы
  Insert nick Quick quote
+Цитировать сообщение
post Sep 13 2017, 17:17:37
Post #5

Аннигилятор пивА
Group Icon
Group: V.I.P
Posts: 45,735
Releases: 13651
From: Koenigsberg - TILZIT
On Forums: 11 years 8 months
Thanks: 302128 time(s)
Russian Federation


ЦИТАТА(Samaritianin @ Sep 13 2017, 16:12:49) *
ну так и новые есть На фейсбуке пишут что новый двойной альбом.

на оф сайте группы и дискогсе нет инфы про новый альбом, а в инфе про альбомы есть только эта облога с тура 2016 года, а где инфа там про новый полноформат? это? new double cd "IN THE MAELSTROM OF TIME" к 25 летию группы? инфы нет ни на дискогсе, на на их сайте(только инфа про концерт в конце сентября на 25 летие), ни на бендкампе, даже металархивы пока молчат... только продажа на амазоне с итюнсом без каких-либо пояснений... ты седня к слову одну компиляшку уже бабахнул под видом нового альбома (IMG:style_emoticons/default/crazy.gif)
http://www.cremation.ch/phoenix/releases.html
Вернуться к началу страницы
  Insert nick Quick quote
+Цитировать сообщение
post Sep 13 2017, 17:27:13
Post #6

Правь статус, ####!111
**************
Group: Металариец
Posts: 12,191
Releases: 8807
From: Г.Харьков
On Forums: 5 years 9 months
Thanks: 141002 time(s)
Unknown


ну появится более подробная инфа-исправить недолго.
Вернуться к началу страницы
  Insert nick Quick quote
+Цитировать сообщение

ОтветитьСоздать новую тему
1 User(s) are reading this topic (1 Guests and 0 Anonymous Users)
0 Members:

 



- Lo-Fi Version Support form
Copyrights and abuse reports form
Time is now: 20th February 2018 - 01:11:32