Welcome Guest ( Log In | Register )

> Uncouth - Tree Of Woe [ep] (2017), Doom/Post-Metal
post Sep 13 2017, 15:52:47
Post #1

Serial Uploader
Group Icon
Group: V.I.P
Posts: 32,736
Releases: 31034
From: Lithuania
On Forums: 10 years 2 weeks
Thanks: 355753 time(s)
Lithuania


(IMG:http://metalarea.org/images/audiocovers/2017_Sep/acov_tid294557_thumb.jpg)

*Artist: Uncouth
*Album: Tree Of Woe [ep]
*Year: 2017
*Genre: Doom/Post-Metal
*Country: United States (IMG:http://metalarea.org/forum/style_images/flags/United%20States.png)
*Format: mp3@CBR320kbps
*Size: 48MB

Tracklist:
01. Cartesian Lies 04:32
02. Fall from Paradise 04:33
03. Mausoleum Road 04:40
04. Pendulum of Man 04:13
05. Family Tree 03:03
******************************
Total playing time: 21:01




Technical info
(IMG:http://metalarea.org/images/spectrogram/2017_Sep/22ddef970cc3be53a753a073da752153.png)
Input File: 02. Fall from Paradise.mp3
Channels : 2
Sample Rate : 44100
Precision : 16-bit
Duration : 00:04:33.61 = 12066157 samples = 20520.7 CDDA sectors
File Size : 11.0M
Bit Rate : 322k
Sample Encoding: MPEG audio (layer I, II or III)
Comments :
Title=Fall from Paradise
Artist=Uncouth
Album=Tree of Woe
Tracknumber=2/5
Year=2017



Register


Go to the top of the page
  Insert nick Quick quote
+Quote Post
 
Start new topic
Replies (1 - 1)
post Sep 14 2017, 09:41:20
Post #2

MISANTHROPHILIAC 666
******
Group: Металариец
Posts: 514
Releases: 1
From: Екатеринбург
On Forums: 10 years 3 weeks
Thanks: 280 time(s)
Russian Federation


Сырой, но не сирый, материал = оставляет почти достаточное приятное послевкусие [кошерный продюсер поправит ситуацию (IMG:style_emoticons/default/smile3.gif) ] 666
Go to the top of the page
  Insert nick Quick quote
+Quote Post

Reply to this topicStart new topic
1 User(s) are reading this topic (1 Guests and 0 Anonymous Users)
0 Members:

 



- Lo-Fi Version Support form
Copyrights and abuse reports form
Time is now: 23rd June 2018 - 11:15:32