Welcome Guest ( Log In | Register )

 
ОтветитьСоздать новую тему
> Herman Gjeitanger - Sunshine (2017), Heavy Metal
post Sep 13 2017, 16:01:20
Post #1

Serial Uploader
Group Icon
Group: V.I.P
Posts: 31,402
Releases: 29737
From: Lithuania
On Forums: 9 years 8 months
Thanks: 341542 time(s)
Lithuania


(IMG:http://metalarea.org/images/audiocovers/2017_Sep/acov_tid294558_thumb.jpg)

*Artist: Herman Gjeitanger
*Album: Sunshine
*Year: 2017
*Genre: Heavy Metal
*Country: United States (IMG:http://metalarea.org/forum/style_images/flags/United%20States.png)
*Format: mp3@CBR320kbps
*Size: 82MB

Tracklist:
01. Torn Apart
02. Wherever You May Go
03. A Moment Of Grace
04. In My House
05. Beautiful
06. This Is My Curse
07. We Ain't Through (Remastered)
******************************
Total playing time: 36:12

Technical info
(IMG:http://metalarea.org/images/spectrogram/2017_Sep/6d5529e101c5e92e08c88138e2781707.png)
Input File: 02. Wherever You May Go.mp3
Channels : 2
Sample Rate : 44100
Precision : 16-bit
Duration : 00:06:08.23 = 16239075 samples = 27617.5 CDDA sectors
File Size : 14.8M
Bit Rate : 321k
Sample Encoding: MPEG audio (layer I, II or III)
Comments :
Title=Wherever You May Go
Artist=Herman Gjeitanger
Album=Sunshine
Tracknumber=2/7
Year=2017



Register


Вернуться к началу страницы
  Insert nick Quick quote
+Цитировать сообщение

ОтветитьСоздать новую тему
1 User(s) are reading this topic (1 Guests and 0 Anonymous Users)
0 Members:

 



- Lo-Fi Version Support form
Copyrights and abuse reports form
Time is now: 20th February 2018 - 01:10:56