Welcome Guest ( Log In | Register )

 
Reply to this topicStart new topic
> Propaganda - Días De Miseria (2017), Groove/Thrash Metal (D4)
post Sep 13 2017, 16:17:04
Post #1

Правь статус, ####!111
**************
Group: Металариец
Posts: 13,381
Releases: 9428
From: Г.Харьков
On Forums: 6 years 1 month
Thanks: 153952 time(s)
Unknown


(IMG:https://metalarea.org/images/audiocovers/2017_Sep/acov_tid294559_thumb.jpg)

*Artist: Propaganda
*Album: Días De Miseria
*Year: 2017
*Genre: Groove/Thrash Metal
*Country: Spain (IMG:https://metalarea.org/forum/style_images/flags/Spain.png)
*Format: mp3@CBR320kbps
*Size: 67MB

Tracklist:
01. Mis Asesinos
02. Miedo
03. Corazón Inerte
04. Del Límite
05. Siempre Entrometido
06. Como Moscas a la Basura
07. Bicicleta Aniversario
08. Causa y Casualidad
******************************
Total playing time: 29:43



Extended info


Technical info
(IMG:https://metalarea.org/images/spectrogram/2017_Sep/48bd72015cee4747bd38676748992be3.png)
Input File: 02 - Miedo.mp3
Channels : 2
Sample Rate : 44100
Precision : 16-bit
Duration : 00:04:07.20 = 10901520 samples = 18540 CDDA sectors
File Size : 9.89M
Bit Rate : 320k
Sample Encoding: MPEG audio (layer I, II or III)
Comments :
Title=Miedo
Artist=Propaganda
Album=DГ­as De Miseria
Tracknumber=2
Year=2017
Genre=Thrash Metal



Register


Go to the top of the page
  Insert nick Quick quote
+Quote Post

Reply to this topicStart new topic
1 User(s) are reading this topic (1 Guests and 0 Anonymous Users)
0 Members:

 



- Lo-Fi Version Support form
Copyrights and abuse reports form
Time is now: 23rd June 2018 - 11:15:43