Welcome Guest ( Log In | Register )

 
ОтветитьСоздать новую тему
> Propaganda - Días De Miseria (2017), Groove/Thrash Metal (D4)
post Sep 13 2017, 16:17:04
Post #1

Правь статус, ####!111
**************
Group: Металариец
Posts: 12,191
Releases: 8807
From: Г.Харьков
On Forums: 5 years 9 months
Thanks: 141002 time(s)
Unknown


(IMG:https://metalarea.org/images/audiocovers/2017_Sep/acov_tid294559_thumb.jpg)

*Artist: Propaganda
*Album: Días De Miseria
*Year: 2017
*Genre: Groove/Thrash Metal
*Country: Spain (IMG:https://metalarea.org/forum/style_images/flags/Spain.png)
*Format: mp3@CBR320kbps
*Size: 67MB

Tracklist:
01. Mis Asesinos
02. Miedo
03. Corazón Inerte
04. Del Límite
05. Siempre Entrometido
06. Como Moscas a la Basura
07. Bicicleta Aniversario
08. Causa y Casualidad
******************************
Total playing time: 29:43



Extended info


Technical info
(IMG:https://metalarea.org/images/spectrogram/2017_Sep/48bd72015cee4747bd38676748992be3.png)
Input File: 02 - Miedo.mp3
Channels : 2
Sample Rate : 44100
Precision : 16-bit
Duration : 00:04:07.20 = 10901520 samples = 18540 CDDA sectors
File Size : 9.89M
Bit Rate : 320k
Sample Encoding: MPEG audio (layer I, II or III)
Comments :
Title=Miedo
Artist=Propaganda
Album=DГ­as De Miseria
Tracknumber=2
Year=2017
Genre=Thrash Metal



Register


Вернуться к началу страницы
  Insert nick Quick quote
+Цитировать сообщение

ОтветитьСоздать новую тему
1 User(s) are reading this topic (1 Guests and 0 Anonymous Users)
0 Members:

 



- Lo-Fi Version Support form
Copyrights and abuse reports form
Time is now: 20th February 2018 - 01:10:34