Welcome Guest ( Log In | Register )

> Devilish Impressions - The I (2017), Black/Death Metal
post Sep 13 2017, 17:54:03
Post #1

filed under desecration
Group Icon
Group: S-moderation team
Posts: 8,674
Releases: 1644
On Forums: 9 years 6 months
Thanks: 97593 time(s)
Unknown


(IMG:http://metalarea.org/images/audiocovers/2017_Sep/acov_tid294563_thumb.jpg)

*Artist: Devilish Impressions
*Album: The I
*Year: 2017
*Genre: Black/Death Metal
*Country: Poland (IMG:http://metalarea.org/forum/style_images/flags/Poland.png)
*Format: mp3@CBR320kbps
*Size: 118MB

Tracklist:
1. The I 05:14
2. The Dove And The Serpent 07:32
3. Eosphoros 04:54
4. Blood Imprinted Stigma 10:01
5. Ipse Philosophvs, Daemon, Devs Et Omnia 07:58
6. Czerń I Biel 06:34
7. The Fatal Messiah 09:03
******************************
Total playing time: 51:16


(IMG:http://metalarea.org/images/youtube.png)

Extended info
Lifeforce Records, September 22nd.
Exclusively for Metalarea.


Technical info
(IMG:http://metalarea.org/images/spectrogram/2017_Sep/1f5346a6889e2e2d4755007884808e26.png)
Input File: 02 - The Dove And The Serpent.mp3
Channels : 2
Sample Rate : 44100
Precision : 16-bit
Duration : 00:07:32.46 = 19953486 samples = 33934.5 CDDA sectors
File Size : 18.1M
Bit Rate : 320k
Sample Encoding: MPEG audio (layer I, II or III)
Comments :
Title=The Dove And The Serpent
Artist=Devilish Impressions
Album=The I
Tracknumber=2
Year=2017
Genre=Black/Death Metal



Register


Вернуться к началу страницы
  Insert nick Quick quote
+Цитировать сообщение
 
Создать новую тему
Replies (1 - 7)
post Sep 13 2017, 18:13:53
Post #2

Шесть Литров
******
Group: Металариец
Posts: 533
Releases: 56
On Forums: 9 years 5 months
Thanks: 1190 time(s)
Portugal




Вернуться к началу страницы
  Insert nick Quick quote
+Цитировать сообщение
post Sep 13 2017, 19:15:02
Post #3

Шесть Литров
******
Group: Металариец
Posts: 559
Releases: 0
On Forums: 8 years 11 months
Thanks: 188 time(s)
Antarctica


Посредственный Death Metal c блэковым харшем.


Вернуться к началу страницы
  Insert nick Quick quote
+Цитировать сообщение
post Sep 14 2017, 10:26:50
Post #4

Necromancer
Group Icon
Group: Curation team
Posts: 10,631
Releases: 271
From: Зеленоград
On Forums: 11 years 4 months
Thanks: 8554 time(s)
Russian Federation


А мне понравилось. (IMG:style_emoticons/default/20.gif)
Вернуться к началу страницы
  Insert nick Quick quote
+Цитировать сообщение
post Sep 14 2017, 10:48:10
Post #5

Русь Понад Усе!
**************
Group: Металариец
Posts: 3,973
Releases: 14
From: Украина
On Forums: 10 years 5 months
Thanks: 1478 time(s)
Ukraine


Мне тоже понравилось (IMG:style_emoticons/default/metaler.gif) (IMG:style_emoticons/default/20.gif)
Вернуться к началу страницы
  Insert nick Quick quote
+Цитировать сообщение
post Sep 17 2017, 20:33:09
Post #6

ЗмееЛев
******
Group: Металариец
Posts: 616
Releases: 17
On Forums: 6 years 10 months
Thanks: 1454 time(s)
Russian Federation


Очень годный и интересный альбом, погружает в себя с первых же минут. Песни неспешны (но когда надо, появляются скорости), атмосферны, в наличие множество интересных гитарных проигрышей, музыка обволакивает и ведёт за собой, а это главное. Поляки сумели удивить, записав такое сильное полотно, в итоге стали для меня приятным открытием, в альбомы года, однозначно.


Thanks:
Вернуться к началу страницы
  Insert nick Quick quote
+Цитировать сообщение
post Sep 17 2017, 20:43:17
Post #7

Аполітичний
**************
Group: Металариец
Posts: 4,953
Releases: 143
From: Тимчасово окупована територія - Юзівка
On Forums: 9 years 5 months
Thanks: 5174 time(s)
Ukraine


Оценка скорее положительная, ибо релиз оригинален, как минимум.
Вернуться к началу страницы
  Insert nick Quick quote
+Цитировать сообщение
post Sep 19 2017, 09:49:28
Post #8

Schuldinerist
**************
Group: Металариец
Posts: 9,468
Releases: 33
From:
On Forums: 10 years 10 months
Thanks: 5596 time(s)
Russian Federation


а что тут оригинального?
ну, вокал чуть интереснее, чем стандартный..
ну, мастерство музыкантов и звукорежиссеров чувствуется на подсознательном уровне..
а на сознательном
ЦИТАТА(mittal @ Sep 13 2017, 21:15:02) *
Посредственный Death Metal c блэковым харшем.

7/10
Вернуться к началу страницы
  Insert nick Quick quote
+Цитировать сообщение

ОтветитьСоздать новую тему
1 User(s) are reading this topic (1 Guests and 0 Anonymous Users)
0 Members:

 



- Lo-Fi Version Support form
Copyrights and abuse reports form
Time is now: 18th February 2018 - 02:23:30