Welcome Guest ( Log In | Register )

> Devilish Impressions - The I (2017), Black/Death Metal
post Sep 13 2017, 17:54:03
Post #1

filed under desecration
Group Icon
Group: S-moderation team
Posts: 8,674
Releases: 1643
On Forums: 9 years 10 months
Thanks: 98249 time(s)
Unknown


(IMG:http://metalarea.org/images/audiocovers/2017_Sep/acov_tid294563_thumb.jpg)

*Artist: Devilish Impressions
*Album: The I
*Year: 2017
*Genre: Black/Death Metal
*Country: Poland (IMG:http://metalarea.org/forum/style_images/flags/Poland.png)
*Format: mp3@CBR320kbps
*Size: 118MB

Tracklist:
1. The I 05:14
2. The Dove And The Serpent 07:32
3. Eosphoros 04:54
4. Blood Imprinted Stigma 10:01
5. Ipse Philosophvs, Daemon, Devs Et Omnia 07:58
6. Czerń I Biel 06:34
7. The Fatal Messiah 09:03
******************************
Total playing time: 51:16


(IMG:http://metalarea.org/images/youtube.png)

Extended info
Lifeforce Records, September 22nd.
Exclusively for Metalarea.


Technical info
(IMG:http://metalarea.org/images/spectrogram/2017_Sep/1f5346a6889e2e2d4755007884808e26.png)
Input File: 02 - The Dove And The Serpent.mp3
Channels : 2
Sample Rate : 44100
Precision : 16-bit
Duration : 00:07:32.46 = 19953486 samples = 33934.5 CDDA sectors
File Size : 18.1M
Bit Rate : 320k
Sample Encoding: MPEG audio (layer I, II or III)
Comments :
Title=The Dove And The Serpent
Artist=Devilish Impressions
Album=The I
Tracknumber=2
Year=2017
Genre=Black/Death Metal



Register


Go to the top of the page
  Insert nick Quick quote
+Quote Post
 
Start new topic
Replies (1 - 8)
post Sep 13 2017, 18:13:53
Post #2

Шесть Литров
******
Group: Металариец
Posts: 547
Releases: 61
On Forums: 9 years 9 months
Thanks: 1303 time(s)
Portugal




Go to the top of the page
  Insert nick Quick quote
+Quote Post
post Sep 13 2017, 19:15:02
Post #3

Девять Литров
*********
Group: Металариец
Posts: 964
Releases: 0
On Forums: 9 years 3 months
Thanks: 333 time(s)
Antarctica


Посредственный Death Metal c блэковым харшем.


Go to the top of the page
  Insert nick Quick quote
+Quote Post
post Sep 14 2017, 10:26:50
Post #4

Necromancer
Group Icon
Group: Curation team
Posts: 10,679
Releases: 271
From: Зеленоград
On Forums: 11 years 8 months
Thanks: 8582 time(s)
Russian Federation


А мне понравилось. (IMG:style_emoticons/default/20.gif)
Go to the top of the page
  Insert nick Quick quote
+Quote Post
post Sep 14 2017, 10:48:10
Post #5

Русь Понад Усе!
**************
Group: Металариец
Posts: 4,032
Releases: 15
From: Украина
On Forums: 10 years 9 months
Thanks: 1536 time(s)
Ukraine


Мне тоже понравилось (IMG:style_emoticons/default/metaler.gif) (IMG:style_emoticons/default/20.gif)
Go to the top of the page
  Insert nick Quick quote
+Quote Post
post Sep 17 2017, 20:33:09
Post #6

ЗмееЛев
******
Group: Металариец
Posts: 645
Releases: 17
On Forums: 7 years 2 months
Thanks: 1486 time(s)
Russian Federation


Очень годный и интересный альбом, погружает в себя с первых же минут. Песни неспешны (но когда надо, появляются скорости), атмосферны, в наличие множество интересных гитарных проигрышей, музыка обволакивает и ведёт за собой, а это главное. Поляки сумели удивить, записав такое сильное полотно, в итоге стали для меня приятным открытием, в альбомы года, однозначно.


Thanks:
Go to the top of the page
  Insert nick Quick quote
+Quote Post
post Sep 17 2017, 20:43:17
Post #7

Аполітичний
**************
Group: Металариец
Posts: 5,103
Releases: 143
From: Тимчасово окупована територія - Юзівка
On Forums: 9 years 10 months
Thanks: 5320 time(s)
Ukraine


Оценка скорее положительная, ибо релиз оригинален, как минимум.
Go to the top of the page
  Insert nick Quick quote
+Quote Post
post Sep 19 2017, 09:49:28
Post #8

Schuldinerist
**************
Group: Металариец
Posts: 9,689
Releases: 33
From:
On Forums: 11 years 2 months
Thanks: 5789 time(s)
Russian Federation


а что тут оригинального?
ну, вокал чуть интереснее, чем стандартный..
ну, мастерство музыкантов и звукорежиссеров чувствуется на подсознательном уровне..
а на сознательном
ЦИТАТА(mittal @ Sep 13 2017, 21:15:02) *
Посредственный Death Metal c блэковым харшем.

7/10
Go to the top of the page
  Insert nick Quick quote
+Quote Post
post May 14 2018, 19:08:12
Post #9

Full-of-Hate
**************
Group: Металариец
Posts: 2,027
Releases: 0
On Forums: 8 years 11 months
Thanks: 1322 time(s)
Russian Federation


Как группу возили на подпевках у Бегемота десять с хреном лет назад, на том уровне и остались...
Go to the top of the page
  Insert nick Quick quote
+Quote Post

Reply to this topicStart new topic
1 User(s) are reading this topic (1 Guests and 0 Anonymous Users)
0 Members:

 



- Lo-Fi Version Support form
Copyrights and abuse reports form
Time is now: 23rd June 2018 - 20:53:01