Welcome Guest ( Log In | Register )

> Rockingmagic - Imagination (2017), Symphonic/Progressive Metal/Instrumental
post Sep 13 2017, 18:02:14
Post #1

MDM-Thrash Metal
**************
Group: Металариец
Posts: 6,164
Releases: 401
From: Одесса
On Forums: 10 years 6 months
Thanks: 11707 time(s)
Ukraine


(IMG:http://metalarea.org/images/audiocovers/2017_Sep/acov_tid294565_thumb.jpg)

*Artist: Rockingmagic
*Album: Imagination
*Year: 2017
*Genre: Symphonic/Progressive Metal/Instrumental
*Country: United States (IMG:http://metalarea.org/forum/style_images/flags/United%20States.png)
*Format: mp3@CBR320kbps
*Size: 161MB

Tracklist:
01. It Is Imagination 05:08
02. Music In The Smoke 04:35
03. Twas The Night 04:33
04. Of Magical Stories 04:17
05. A Hammer At Music 05:58
06. Joy Of Jesus Christ 04:49
07. Maestro 04:30
08. The Wish 04:49
09. The Tree Has The Instruments 04:12
10. Wanderlust Of Music Notes 04:13
11. Someone Wore A Top Hat 05:02
12. The Magic Composer 12:35
13. The Instruments Burn 04:21
******************************
Total playing time: 1:09:02



Technical info
(IMG:http://metalarea.org/images/spectrogram/2017_Sep/d7e1474940fb68d8e0a19ca2b589a44c.png)
Input File: Rockingmagic - Imagination - 02 Music In The Smoke.mp3
Channels : 2
Sample Rate : 44100
Precision : 16-bit
Duration : 00:04:35.75 = 12160487 samples = 20681.1 CDDA sectors
File Size : 11.1M
Bit Rate : 323k
Sample Encoding: MPEG audio (layer I, II or III)
Comments :
Title=Music In The Smoke
Artist=Rockingmagic
Album=Imagination
Tracknumber=2
Year=2017



Register


Вернуться к началу страницы
  Insert nick Quick quote
+Цитировать сообщение
 
Создать новую тему
Replies (1 - 1)
post Sep 14 2017, 17:30:15
Post #2

Три Литра
***
Group: Завсегдатай
Posts: 255
Releases: 0
From: Сибирь
On Forums: 6 years 11 months
Thanks: 72 time(s)
Russian Federation


Ну что за мура
Вернуться к началу страницы
  Insert nick Quick quote
+Цитировать сообщение

ОтветитьСоздать новую тему
1 User(s) are reading this topic (1 Guests and 0 Anonymous Users)
0 Members:

 



- Lo-Fi Version Support form
Copyrights and abuse reports form
Time is now: 20th February 2018 - 01:09:59