Welcome Guest ( Log In | Register )

> Hail Caligula - Bacchanalia Sanguis (2017), Brutal Death Metal
post Sep 13 2017, 18:16:46
Post #1

Аннигилятор пивА
Group Icon
Group: V.I.P
Posts: 46,863
Releases: 14080
From: Koenigsberg - TILZIT
On Forums: 12 years 3 weeks
Thanks: 312396 time(s)
Russian Federation


(IMG:https://metalarea.org/images/audiocovers/2017_Sep/acov_tid294566_thumb.jpg)

*Artist: Hail Caligula
*Album: Bacchanalia Sanguis
*Year: 2017
*Genre: Brutal Death Metal
*Country: Chile (IMG:https://metalarea.org/forum/style_images/flags/Chile.png)
*Format: mp3@CBR320kbps
*Size: 63MB

Tracklist:
1. Fist Fucking Penetrarion Torture
2. Days Of Decomposition
3. Diarrhea Post Orgasmic Self Mutilation
4. Origin Of Terror
5. Bukkake
6. Corpse Collector
7. Marked By Cruelty
8. Female Sushi Gourmet
******************************
Total playing time: 29:21



Extended info


Technical info
(IMG:https://metalarea.org/images/spectrogram/2017_Sep/d509e528d42abae013d139f66b25b215.png)
Input File: 02. Days Of Decomposition.mp3
Channels : 2
Sample Rate : 44100
Precision : 16-bit
Duration : 00:02:47.67 = 7394335 samples = 12575.4 CDDA sectors
File Size : 6.71M
Bit Rate : 320k
Sample Encoding: MPEG audio (layer I, II or III)
Comments :
Title=Days Of Decomposition
Artist=Hail Caligula
Album=Bacchanalia Sanguis
Tracknumber=2
Year=2017



Register


Go to the top of the page
  Insert nick Quick quote
+Quote Post
 
Start new topic
Replies (1 - 2)
post Sep 13 2017, 19:57:55
Post #2

Crush The Enemies
**************
Group: Металариец
Posts: 4,080
Releases: 0
From: Moscow
On Forums: 8 years 9 months
Thanks: 2031 time(s)
Russian Federation



Как-то уж совсем безлико и невнятно (IMG:style_emoticons/default/21.gif)


Thanks:
Go to the top of the page
  Insert nick Quick quote
+Quote Post
post Sep 13 2017, 19:58:54
Post #3

Аннигилятор пивА
Group Icon
Group: V.I.P
Posts: 46,863
Releases: 14080
From: Koenigsberg - TILZIT
On Forums: 12 years 3 weeks
Thanks: 312396 time(s)
Russian Federation


MIRROR
Register


Thanks:
(1) jollo,
Go to the top of the page
  Insert nick Quick quote
+Quote Post

Reply to this topicStart new topic
1 User(s) are reading this topic (1 Guests and 0 Anonymous Users)
0 Members:

 



- Lo-Fi Version Support form
Copyrights and abuse reports form
Time is now: 23rd June 2018 - 16:58:04