Welcome Guest ( Log In | Register )

 
Reply to this topicStart new topic
> Orgy Of Carrion & Cremantur - Orgy Of Carrion/Cremantur [split] (2017), Raw Black Metal | Raw Black Metal
post Sep 13 2017, 19:20:28
Post #1

Маньяк
**********
Group: Металариец
Posts: 1,263
Releases: 970
From: Prešov
On Forums: 4 years 2 months
Thanks: 22612 time(s)
Slovakia


(IMG:http://metalarea.org/images/audiocovers/2017_Sep/acov_tid294567_thumb.jpg)

*Artist: Orgy Of Carrion & Cremantur
*Album: Orgy Of Carrion/Cremantur [split]
*Year: 2017
*Genre: Raw Black Metal | Raw Black Metal
*Country: United States (IMG:http://metalarea.org/forum/style_images/flags/United%20States.png) | United States (IMG:http://metalarea.org/forum/style_images/flags/United%20States.png)
*Format: mp3@CBR320kbps
*Size: 55MB

Tracklist:
Orgy of Carrion:
1. Cursed in Final Deaths 01:54
2. Blood Cross 05:10
3. A Burial 03:01
Cremantur:
4. Torment | Torture 04:10
5. Suffering | Bleeding 03:20
6. Murder | Burning 03:20
******************************
Total playing time: 20:55

Extended info
Altare Productions - ALTMC016
Tape limited to 100 copies

Tape-rip + Scans


Technical info
(IMG:http://metalarea.org/images/spectrogram/2017_Sep/e03932702c6726fddba9546dff4ffd91.png)
Input File: A2. Orgy of Carrion - Blood Cross.mp3
Channels : 2
Sample Rate : 48000
Precision : 16-bit
Duration : 00:05:07.85 = 14776848 samples ~ 23088.8 CDDA sectors
File Size : 12.5M
Bit Rate : 325k
Sample Encoding: MPEG audio (layer I, II or III)
Comments :
Title=Blood Cross
Artist=Orgy Of Carrion
Album=Orgy Of Carrion / Cremantur
Tracknumber=02/06
Year=2017
Genre=Black Metal



Register


Go to the top of the page
  Insert nick Quick quote
+Quote Post

Reply to this topicStart new topic
1 User(s) are reading this topic (1 Guests and 0 Anonymous Users)
0 Members:

 



- Lo-Fi Version Support form
Copyrights and abuse reports form
Time is now: 23rd June 2018 - 11:16:10