Welcome Guest ( Log In | Register )

> Hellwitch - A Night At The 5th [live] (2016), Technical Death/Thrash Metal (D)
post Sep 13 2017, 19:56:47
Post #1

Восемь Литров
********
Group: Металариец
Posts: 882
Releases: 715
From: Одесса
On Forums: 9 years 8 months
Thanks: 5666 time(s)
Ukraine


(IMG:http://metalarea.org/images/audiocovers/2017_Sep/acov_tid294569_thumb.jpg)

*Artist: Hellwitch
*Album: A Night At The 5th [live]
*Year: 2016
*Genre: Technical Death/Thrash Metal
*Country: United States (IMG:http://metalarea.org/forum/style_images/flags/United%20States.png)
*Format: mp3@CBR320kbps
*Size: 162MB

Tracklist:
01. Vicious Avidity 04:33
02. Pyrophoric Seizure 03:46
03. Viral Exogence 05:11
04. Nosferatu 03:56
05. At Rest 05:28
06. Sought to Beguile 04:25
07. Megalopalyptic Confine 05:14
08. Satan's Wrath 04:36
09. Mordirivial Dissemination 06:39
10. Infernal Death 03:19
11. Purveyor of Fear 04:37
12. Opiatic Luminance 04:06
13. Torture Chamber 04:25
14. Final Approach 04:20
15. Days of Nemesis 03:40
******************************
Total playing time: 1:08:15



Extended info
Line - up:

Patrick Ranieri - Guitars, Vocals (ex-Meatlocker)
Craig Shattuck - Bass
J.P. Brown - Guitars (Abysmal)
Brian Wilson - Drums (Combat, Faethom (live), Wool, Green Jello (live), ex-Frostbite)

(IMG:https://f4.bcbits.com/img/0007522499_10.jpg)


Technical info
(IMG:http://metalarea.org/images/spectrogram/2017_Sep/ccf372eb2633b9de98153f7e1f14fe76.png)
Input File: 13 Torture Chamber.mp3
Channels : 2
Sample Rate : 44100
Precision : 16-bit
Duration : 00:04:25.12 = 11691748 samples = 19883.9 CDDA sectors
File Size : 10.6M
Bit Rate : 320k
Sample Encoding: MPEG audio (layer I, II or III)
Comments :
Title=Torture Chamber
Artist=Hellwitch
Album=A Night At the 5th (Live)
Tracknumber=13
Year=2016
Genre=Technical Death / Thrash Metal



Register


Вернуться к началу страницы
  Insert nick Quick quote
+Цитировать сообщение
 
Создать новую тему
Replies (1 - 1)
post Sep 14 2017, 08:11:58
Post #2

Маньяк
**********
Group: Металариец
Posts: 1,063
Releases: 0
On Forums: 9 years 3 months
Thanks: 361 time(s)
United Kingdom


я уж обрадовался что полноформатник новый (IMG:style_emoticons/default/21.gif) а херушечки там (IMG:style_emoticons/default/6.gif)
Вернуться к началу страницы
  Insert nick Quick quote
+Цитировать сообщение

ОтветитьСоздать новую тему
1 User(s) are reading this topic (1 Guests and 0 Anonymous Users)
0 Members:

 



- Lo-Fi Version Support form
Copyrights and abuse reports form
Time is now: 25th February 2018 - 08:36:21