Welcome Guest ( Log In | Register )

> И неформату есть предел.

Рэп/хип-хоп/шансон/поп удаляются. Для них есть свои порталы.

> Witches Moon - Azazel Bedazzle (2017), Black Ambient/Dungeon Synth
post Sep 15 2017, 10:06:14
Post #1

Четыре Литра
****
Group: Металариец
Posts: 368
Releases: 210
On Forums: 8 years 1 week
Thanks: 5790 time(s)
Unknown


(IMG:https://metalarea.org/images/audiocovers/2017_Sep/acov_tid294666_thumb.jpg)

*Artist: Witches Moon
*Album: Azazel Bedazzle
*Year: 2017
*Genre: Black Ambient/Dungeon Synth
*Country: United States (IMG:https://metalarea.org/forum/style_images/flags/United%20States.png)
*Format: mp3@CBR320kbps
*Size: 93MB

Tracklist:
1. Spices 02:29
2. Six of Wands 06:21
3. Hiraeth 07:29
4. The Light of Love 03:26
5. Sex Faerie 02:53
6. Magick 02:35
7. Moonlight Frost (Kangchenjunga) 02:27
8. Winters Blackened Stars 06:49
9. Azazel Bedazzle 05:29
******************************
Total playing time: 39:58



Extended info
Special for Metalarea.org


Technical info
(IMG:https://metalarea.org/images/spectrogram/2017_Sep/dd33c651d1fecff55ad91186f83dd213.png)
Input File: Witches Moon - Azazel Bedazzle - 01 Spices.mp3
Channels : 2
Sample Rate : 44100
Precision : 16-bit
Duration : 00:02:29.57 = 6595817 samples = 11217.4 CDDA sectors
File Size : 6.05M
Bit Rate : 323k
Sample Encoding: MPEG audio (layer I, II or III)
Comments :
Title=Spices
Artist=Witches Moon
Album=Azazel Bedazzle
Tracknumber=1
Year=2017



Register


Go to the top of the page
  Insert nick Quick quote
+Quote Post
 
Start new topic
Replies (1 - 1)
post Sep 21 2017, 12:49:23
Post #2

Два Литра
**
Group: Завсегдатай
Posts: 175
Releases: 0
From: Чуркестан
On Forums: 13 years 2 weeks
Thanks: 17 time(s)
Uzbekistan


Весьма сильно, только название - азазле-бедазле - возможно, многих оттолкнуло.
4,5/5


Thanks:
Go to the top of the page
  Insert nick Quick quote
+Quote Post

Reply to this topicStart new topic
2 User(s) are reading this topic (2 Guests and 0 Anonymous Users)
0 Members:

 



- Lo-Fi Version Support form
Copyrights and abuse reports form
Time is now: 20th September 2020 - 09:23:24