Welcome Guest ( Log In | Register )

> Celephaïs - Monad (2017), Atmospheric Black Metal (D4)
post Sep 20 2017, 21:04:43
Post #1

Время Мары
**************
Group: Металариец
Posts: 2,958
Releases: 382
From: Харьков
On Forums: 9 years 5 months
Thanks: 7328 time(s)
Ukraine


(IMG:http://metalarea.org/images/audiocovers/2017_Sep/acov_tid294957_thumb.jpg)

*Artist: Celephaïs
*Album: Monad
*Year: 2017
*Genre: Atmospheric Black Metal
*Country: Germany (IMG:http://metalarea.org/forum/style_images/flags/Germany.png)
*Format: mp3@CBR320kbps
*Size: 145MB

Tracklist:
1. Anamnesis
2. Spirit
3. Mortality
4. Earthbound
5. Emptiness
6. Infinite
******************************
Total playing time: 1:03:48

Extended info
Instrumental


Technical info
(IMG:http://metalarea.org/images/spectrogram/2017_Sep/655973a994a16ae9aeee0e940a275c85.png)
Input File: 05. Emptiness.mp3
Channels : 2
Sample Rate : 44100
Precision : 16-bit
Duration : 00:09:54.14 = 26201354 samples = 44560.1 CDDA sectors
File Size : 23.8M
Bit Rate : 320k
Sample Encoding: MPEG audio (layer I, II or III)
Comments :
Title=Emptiness
Artist=CelephaГЇs
Album=Monad
Tracknumber=5
Year=2017



Register


Go to the top of the page
  Insert nick Quick quote
+Quote Post
 
Start new topic
Replies (1 - 3)
post Sep 21 2017, 03:53:23
Post #2

TomheT
**************
Group: Металариец
Posts: 4,175
Releases: 75
From: Малоярославец
On Forums: 10 years 7 months
Thanks: 16882 time(s)
Russian Federation




Thanks:
Go to the top of the page
  Insert nick Quick quote
+Quote Post
post Jan 13 2018, 10:02:58
Post #3

Волк без яблока
**************
Group: Металариец
Posts: 13,128
Releases: 104
From: Санкт-Петербург
On Forums: 12 years 1 month
Thanks: 14752 time(s)
Russian Federation


А чего ни одного комментария? Хороший, ненавязчивый атмосферный пост-блэк же.
Go to the top of the page
  Insert nick Quick quote
+Quote Post
post May 12 2018, 09:33:31
Post #4

Четыре Литра
****
Group: Металариец
Posts: 358
Releases: 0
On Forums: 2 years 3 months
Thanks: 25 time(s)
Unknown


Instrumental
Go to the top of the page
  Insert nick Quick quote
+Quote Post

Reply to this topicStart new topic
1 User(s) are reading this topic (1 Guests and 0 Anonymous Users)
0 Members:

 



- Lo-Fi Version Support form
Copyrights and abuse reports form
Time is now: 21st November 2018 - 05:09:49