Welcome Guest ( Log In | Register )

 
ОтветитьСоздать новую тему
> Mute Smerte - Немая боль [ep] (2017), Black Metal
post Sep 21 2017, 06:26:31
Post #1

i listen to black metal
**************
Group: Металариец
Posts: 2,119
Releases: 128
From: Москва-Лианозово
On Forums: 11 years 2 months
Thanks: 1969 time(s)
Russian Federation


(IMG:https://metalarea.org/images/audiocovers/2017_Sep/acov_tid294965_thumb.jpg)

*Artist: Mute Smerte
*Album: Немая боль [ep]
*Year: 2017
*Genre: Black Metal
*Country: Russian Federation (IMG:https://metalarea.org/forum/style_images/flags/Russian%20Federation.png)
*Format: mp3@CBR320kbps
*Size: 17MB

Tracklist:
1. Сколько еще? 4:00
2. Стекает кровь 1:34
3. В миг 1:34
******************************
Total playing time: 7:08

Preview 1

Technical info
(IMG:https://metalarea.org/images/spectrogram/2017_Sep/35709374b22f50e358a64de7d07a9295.png)
Input File: Mute Smerte - Сколько еще.mp3
Channels : 2
Sample Rate : 48000
Precision : 16-bit
Duration : 00:01:52.06 = 5378832 samples ~ 8404.42 CDDA sectors
File Size : 4.48M
Bit Rate : 320k
Sample Encoding: MPEG audio (layer I, II or III)



Register


Вернуться к началу страницы
  Insert nick Quick quote
+Цитировать сообщение

ОтветитьСоздать новую тему
1 User(s) are reading this topic (1 Guests and 0 Anonymous Users)
0 Members:

 



- Lo-Fi Version Support form
Copyrights and abuse reports form
Time is now: 24th February 2018 - 18:54:46