Welcome Guest ( Log In | Register )

> Nacarbide - Lots Of Eye (2017), Heavy/Power Metal
post Sep 25 2017, 06:41:30
Post #1

Аннигилятор пивА
Group Icon
Group: V.I.P
Posts: 52,360
Releases: 16550
From: Koenigsberg - TILZIT
On Forums: 14 years 1 week
Thanks: 365293 time(s)
Russian Federation


(IMG:https://metalarea.org/images/audiocovers/2017_Sep/acov_tid295146_thumb.jpg)

*Artist: Nacarbide
*Album: Lots Of Eye
*Year: 2017
*Genre: Heavy/Power Metal
*Country: Thailand (IMG:https://metalarea.org/forum/style_images/flags/Thailand.png)
*Format: mp3@CBR320kbps
*Size: 85MB

Tracklist:
1. Edge of Life 04:12
2. Lifetime 05:16
3. Don't Leave Me 04:24
4. The Wind Blows 04:50
5. Flyaway 04:17
6. Dawning 05:18
7. Deceiving Me 04:43
8. Lots of Eye 03:49
******************************
Total playing time: 36:49




Extended info
Hassy - Bass
Hiro - Drums
Aof - Guitars
Masa - Guitars
Hitomi - Vocals


Technical info
(IMG:https://metalarea.org/images/spectrogram/2017_Sep/14e1d28a3d90eb66789ee506b241c836.png)
Input File: 02.Lifetime.mp3
Channels : 2
Sample Rate : 44100
Precision : 16-bit
Duration : 00:05:15.17 = 13898953 samples = 23637.7 CDDA sectors
File Size : 13.2M
Bit Rate : 335k
Sample Encoding: MPEG audio (layer I, II or III)
Comments :
Title=Lifetime
Artist=Nacarbide
Album=Lots Of Eye
Tracknumber=2
Year=2017
Genre=Heavy Metal



Register


Go to the top of the page
  Insert nick Quick quote
+Quote Post
 
Start new topic
Replies (1 - 4)
post Sep 25 2017, 11:26:03
Post #2

Наливай!
**************
Group: Металариец
Posts: 5,724
Releases: 27
From: Москва-Бибирево
On Forums: 12 years 2 months
Thanks: 2897 time(s)
Russian Federation


Вы все наказаны, поэтому вот вам... (IMG:style_emoticons/default/crazy.gif)



Thanks:
Go to the top of the page
  Insert nick Quick quote
+Quote Post
post Sep 27 2017, 07:01:32
Post #3

В прогрессиве
****
Group: Металариец
Posts: 316
Releases: 61
From: saratov
On Forums: 10 years 9 months
Thanks: 1488 time(s)
Russian Federation


Жеееээсть))
Go to the top of the page
  Insert nick Quick quote
+Quote Post
post Oct 1 2017, 16:19:07
Post #4

South Of Heaven /адепт ВУДУ
**************
Group: Металариец
Posts: 13,960
Releases: 9
On Forums: 10 years 2 months
Thanks: 5470 time(s)
Unknown


aesteticvice, тебя за выкладку такого релиза на кол посадить надо (IMG:style_emoticons/default/25.gif)
Go to the top of the page
  Insert nick Quick quote
+Quote Post
post Mar 25 2020, 07:22:58
Post #5

Литр
*
Group: Подсевший
Posts: 75
Releases: 0
On Forums: 11 years 4 weeks
Thanks: 19 time(s)
Bulgaria


Register


This post has been edited by Borderline1991: Mar 29 2020, 13:16:36
Reason for edit: hide
Go to the top of the page
  Insert nick Quick quote
+Quote Post

Reply to this topicStart new topic
1 User(s) are reading this topic (1 Guests and 0 Anonymous Users)
0 Members:

 



- Lo-Fi Version Support form
Copyrights and abuse reports form
Time is now: 5th June 2020 - 07:05:58