Welcome Guest ( Log In | Register )

> И неформату есть предел.

Рэп/хип-хоп/шансон/поп удаляются. Для них есть свои порталы.

> Сектор Газа - Нажми на газ (1993), Punk Rock (D11)
post Sep 28 2017, 14:06:21
Post #1

Правь статус, ####!111
**************
Group: Металариец
Posts: 47,053
Releases: 732
On Forums: 11 years 2 months
Thanks: 39719 time(s)
Russian Federation


(IMG:http://metalarea.org/images/audiocovers/2017_Sep/acov_tid295275_thumb.jpg)

*Artist: Сектор Газа
*Album: Нажми на газ
*Year: 1993
*Genre: Punk Rock
*Country: Russian Federation (IMG:http://metalarea.org/forum/style_images/flags/Russian%20Federation.png)
*Format: mp3@CBR320kbps
*Size: 101MB

Tracklist:
01. Нажми на газ 1:56
02. Кабак 3:52
03. Подвал 3:07
04. Девушка 3:17
05. Суд 3:57
06. Взял вину на себя 3:15
07. Оборотень 3:34
08. Мажор 0:50
09. Лирика 4:20
10. Дурак 3:23
11. Теща 3:48
12. Мумия 4:39
13. Репетиция 5:08
******************************
Total playing time: 45:06

(IMG:http://metalarea.org/images/youtube.png)

Technical info
(IMG:http://metalarea.org/images/spectrogram/2017_Sep/e55e368b57bc32d598b4017fcfc11938.png)
Input File: 02. Кабак.mp3
Channels : 2
Sample Rate : 44100
Precision : 16-bit
Duration : 00:03:52.44 = 10250604 samples = 17433 CDDA sectors
File Size : 9.30M
Bit Rate : 320k
Sample Encoding: MPEG audio (layer I, II or III)
Comments :
Title=Кабак
Artist=Сектор Газа
Album=Нажми на газ
Tracknumber=2
Year=1993
Genre=Punk Rock



Register


Thanks:
Go to the top of the page
  Insert nick Quick quote
+Quote Post
 
Start new topic
Replies (1 - 8)
post Jun 17 2019, 21:31:03
Post #2

Восемь Литров
********
Group: Металариец
Posts: 886
Releases: 0
From: Кирово-Чепецк
On Forums: 5 years 4 months
Thanks: 173 time(s)
Russian Federation


Лучший альбом Хоя
Go to the top of the page
  Insert nick Quick quote
+Quote Post
post Jun 17 2019, 21:31:57
Post #3

Правь статус, ####!111
**************
Group: Металариец
Posts: 47,053
Releases: 732
On Forums: 11 years 2 months
Thanks: 39719 time(s)
Russian Federation


Лучший у него это пространная сказка про царевича.

Хотя и отдельные трэки выборочно жгут напалмом и палят горошком.
Go to the top of the page
  Insert nick Quick quote
+Quote Post
post Jun 17 2019, 21:37:30
Post #4

Восемь Литров
********
Group: Металариец
Posts: 886
Releases: 0
From: Кирово-Чепецк
On Forums: 5 years 4 months
Thanks: 173 time(s)
Russian Federation


ЦИТАТА(vosmidesijatye @ Jun 18 2019, 01:31:57) *
Лучший у него это пространная сказка про царевича.

Хотя и отдельные трэки выборочно жгут напалмом и палят горошком.

кому как для меня по саунду этот и 96 топ
Go to the top of the page
  Insert nick Quick quote
+Quote Post
post Jun 17 2019, 21:39:11
Post #5

Правь статус, ####!111
**************
Group: Металариец
Posts: 47,053
Releases: 732
On Forums: 11 years 2 months
Thanks: 39719 time(s)
Russian Federation


В такой дворово-пролетарской музыке качество саунда не так важно.

А вот хлесткая лирика и харизматично - энергичная подача - то да.
Go to the top of the page
  Insert nick Quick quote
+Quote Post
post Jun 18 2019, 16:33:25
Post #6

Восемь Литров
********
Group: Металариец
Posts: 886
Releases: 0
From: Кирово-Чепецк
On Forums: 5 years 4 months
Thanks: 173 time(s)
Russian Federation


никогда не понимал переоценения кощея там же звук убогий. ННГ по гитарке жирнее
Go to the top of the page
  Insert nick Quick quote
+Quote Post
post Jun 18 2019, 17:22:48
Post #7

Правь статус, ####!111
**************
Group: Металариец
Posts: 47,053
Releases: 732
On Forums: 11 years 2 months
Thanks: 39719 time(s)
Russian Federation


ЦИТАТА(assonik @ Jun 18 2019, 19:33:25) *
никогда не понимал переоценения кощея там же звук убогий. ННГ по гитарке жирнее


Это русский панк рок, звук тут дело десятое.

Главное угар и трэш в текстах тогда и будет любовь народная.

То что Хой даже у Мальмстина риффы тибзил никого не волнует, народец наш зато навсегда запомнил словеса и хлесткие фразочки Хоя.
Go to the top of the page
  Insert nick Quick quote
+Quote Post
post Jun 18 2019, 19:13:17
Post #8

Восемь Литров
********
Group: Металариец
Posts: 886
Releases: 0
From: Кирово-Чепецк
On Forums: 5 years 4 months
Thanks: 173 time(s)
Russian Federation


ты был винил рип добавил что ли
Go to the top of the page
  Insert nick Quick quote
+Quote Post
post Jun 18 2019, 19:15:36
Post #9

Правь статус, ####!111
**************
Group: Металариец
Posts: 47,053
Releases: 732
On Forums: 11 years 2 months
Thanks: 39719 time(s)
Russian Federation


ЦИТАТА(assonik @ Jun 18 2019, 22:13:17) *
ты был винил рип добавил что ли


Здесь это никому не надо. (IMG:style_emoticons/default/1488.gif)

Тут всем мятал подавай, а так то винил рип лежит на трэкере, кому надо - найдут.
Go to the top of the page
  Insert nick Quick quote
+Quote Post

Reply to this topicStart new topic
1 User(s) are reading this topic (1 Guests and 0 Anonymous Users)
0 Members:

 



- Lo-Fi Version Support form
Copyrights and abuse reports form
Time is now: 13th August 2020 - 07:22:30