Welcome Guest ( Log In | Register )

> Кипелов - Звезды И Кресты (2017), Heavy Metal
post Sep 28 2017, 14:30:10
Post #1

Serial Uploader
Group Icon
Group: V.I.P
Posts: 37,275
Releases: 35456
From: Lithuania
On Forums: 12 years 1 month
Thanks: 422399 time(s)
Lithuania


(IMG:https://metalarea.org/images/audiocovers/2017_Sep/acov_tid295281_thumb.jpg)

*Artist: Кипелов
*Album: Звезды И Кресты
*Year: 2017
*Genre: Heavy Metal
*Country: Russian Federation (IMG:https://metalarea.org/forum/style_images/flags/Russian%20Federation.png)
*Format: mp3@CBR320kbps
*Size: 134MB

Tracklist:
01. Интро
02. Звезды и кресты
03. Рожденный летать
04. Дама Пик
05. Ледяной дождь
06. Белый Ад
07. Выше
08. Жажда невозможного
09. Темная Башня
10. Косово Поле
11. Ледяной дождь (инструментальная версия)
******************************
Total playing time: 1:03:17


Preview 2

Technical info
(IMG:https://metalarea.org/images/spectrogram/2017_Sep/3d52b4f6b311b276c9ab5df2e48529dd.png)
Input File: 03. Рожденный летать.mp3
Channels : 2
Sample Rate : 44100
Precision : 16-bit
Duration : 00:05:18.05 = 14025873 samples = 23853.5 CDDA sectors
File Size : 12.8M
Bit Rate : 323k
Sample Encoding: MPEG audio (layer I, II or III)
Comments :
Title=Рожденный летать
Artist=Кипелов
Album=Звезды и Кресты
Tracknumber=3/11
Genre=17
Discnumber=1/1



Register


Go to the top of the page
  Insert nick Quick quote
+Quote Post
7 Pages V  « < 5 6 7  
Start new topic
Replies (180 - 186)
post May 15 2020, 21:39:35
Post #181

Ледоруб
**************
Group: Металариец
Posts: 26,211
Releases: 0
From: Санкт-Петербург
On Forums: 10 years 10 months
Thanks: 9194 time(s)
Russian Federation


"П*зды и х*йцы"

Блин, извините (IMG:style_emoticons/default/normal_Homerdisgust3.png)
Go to the top of the page
  Insert nick Quick quote
+Quote Post
post Jul 10 2020, 18:01:50
Post #182

ПОЛИТИК
**************
Group: Металариец
Posts: 5,661
Releases: 4
From: P T
On Forums: 13 years 8 months
Thanks: 375 time(s)
Canada


Звучание утяжели, но походу меня ничего не зацепило BESIDES "Ледяной Дождь".
Go to the top of the page
  Insert nick Quick quote
+Quote Post
post Aug 1 2020, 17:33:17
Post #183

Восемь Литров
********
Group: Металариец
Posts: 873
Releases: 0
From: Кирово-Чепецк
On Forums: 5 years 3 months
Thanks: 169 time(s)
Russian Federation


Go to the top of the page
  Insert nick Quick quote
+Quote Post
post Aug 1 2020, 20:31:41
Post #184

Литр
*
Group: Подсевший
Posts: 69
Releases: 0
On Forums: 7 years 3 months
Thanks: 65 time(s)
Unknown


ЦИТАТА(assonik @ Aug 1 2020, 21:33:17) *
Девочка хорошая, песня выбрана неудачно, клип срежиссирован плохо.
Go to the top of the page
  Insert nick Quick quote
+Quote Post
post Yesterday, 19:09:17
Post #185

زرنيخ
**************
Group: Металариец
Posts: 2,203
Releases: 3
From: Санкт-Петербург
On Forums: 5 years 4 months
Thanks: 2722 time(s)
Russian Federation


За такой цветокор и руки оборвать можно.

А заодно и тому, кто сюда этот шлак тащит.
Go to the top of the page
  Insert nick Quick quote
+Quote Post
post Yesterday, 20:19:57
Post #186

Восемь Литров
********
Group: Металариец
Posts: 873
Releases: 0
From: Кирово-Чепецк
On Forums: 5 years 3 months
Thanks: 169 time(s)
Russian Federation


ЦИТАТА(Arseniy @ Aug 2 2020, 23:09:17) *
За такой цветокор и руки оборвать можно.

А заодно и тому, кто сюда этот шлак тащит.

Анечка юбилейная герла
Go to the top of the page
  Insert nick Quick quote
+Quote Post
post Today, 09:23:52
Post #187

Котеги! Нравяцо котеги?
**************
Group: Металариец
Posts: 6,488
Releases: 0
From: Терра Инкогнита
On Forums: 10 years 2 months
Thanks: 2911 time(s)
Russian Federation


ЦИТАТА(Arseniy @ 2nd August 2020 - 21:09:17) *
цветокор

я чёт не сразув раздуплил, что речь о видосе выше, и подумал, что ты таким образом альбом затеговал

ЦИТАТА(assonik @ 2nd August 2020 - 22:19:57) *
юбилейная герла

это что значит? Даёт, только когда количество вопрошающих кратно десяти?
Go to the top of the page
  Insert nick Quick quote
+Quote Post

7 Pages V  « < 5 6 7
Reply to this topicStart new topic
3 User(s) are reading this topic (2 Guests and 0 Anonymous Users)
1 Members: laTERNentrager

 



- Lo-Fi Version Support form
Copyrights and abuse reports form
Time is now: 3rd August 2020 - 10:21:48