Welcome Guest ( Log In | Register )

> И неформату есть предел.

Рэп/хип-хоп/шансон/поп удаляются. Для них есть свои порталы.

 
ОтветитьСоздать новую тему
> Sea In The Sky - Everything All At Once (2017), Progressive Metal/Rock
post Sep 29 2017, 05:04:16
Post #1

Аннигилятор пивА
Group Icon
Group: V.I.P
Posts: 45,778
Releases: 13668
From: Koenigsberg - TILZIT
On Forums: 11 years 8 months
Thanks: 302444 time(s)
Russian Federation


(IMG:http://metalarea.org/images/audiocovers/2017_Sep/acov_tid295307_thumb.jpg)

*Artist: Sea In The Sky
*Album: Everything All At Once
*Year: 2017
*Genre: Progressive Metal/Rock
*Country: United States (IMG:http://metalarea.org/forum/style_images/flags/United%20States.png)
*Format: mp3@CBR320kbps
*Size: 84MB

Tracklist:
01. Dreamer 05:18
02. Pale Blue Dot 04:40
03. Not Too Tall, Not Too Cool 03:48
04. Neck Romancer 03:38
05. Night Anchor 04:05
06. An Appeal To Emotion 03:34
07. Imposter Syndrome 03:01
08. False Cods 02:52
09. Overview Effect 04:19
10.Everything All at Once 04:23
******************************
Total playing time: 39:38




Extended info
Sam Kohl - Vocals
Johan Guerra - Bass
Rodney Dudum - Guitar
Jakob Bray - Guitar
Daniel Larsen - Drums



Technical info
(IMG:http://metalarea.org/images/spectrogram/2017_Sep/02e1ee446d6f30fb18a79836a6b555cc.png)
Input File: 04 Neck Romancer.mp3
Channels : 2
Sample Rate : 44100
Precision : 16-bit
Duration : 00:03:39.03 = 9659399 samples = 16427.5 CDDA sectors
File Size : 8.87M
Bit Rate : 324k
Sample Encoding: MPEG audio (layer I, II or III)
Comments :
Title=Neck Romancer
Artist=Sea in the Sky
Album=Everything All at Once
Tracknumber=4/10
Year=2017
Genre=17
Discnumber=1/1



Register


Thanks:
Вернуться к началу страницы
  Insert nick Quick quote
+Цитировать сообщение

ОтветитьСоздать новую тему
2 User(s) are reading this topic (2 Guests and 0 Anonymous Users)
0 Members:

 



- Lo-Fi Version Support form
Copyrights and abuse reports form
Time is now: 23rd February 2018 - 20:47:02