Welcome Guest ( Log In | Register )

> И неформату есть предел.

Рэп/хип-хоп/шансон/поп удаляются. Для них есть свои порталы.

> Svartsinn - Collected Obscurities [best of/compilation] (2017), Dark Ambient (D6)
post Sep 29 2017, 16:10:57
Post #1

As Above, so Below
***********
Group: Металариец
Posts: 1,862
Releases: 17
On Forums: 8 years 9 months
Thanks: 3689 time(s)
Russian Federation


(IMG:http://metalarea.org/images/audiocovers/2017_Sep/acov_tid295375_thumb.jpg)

*Artist: Svartsinn
*Album: Collected Obscurities [best of/compilation]
*Year: 2017
*Genre: Dark Ambient
*Country: Norway (IMG:http://metalarea.org/forum/style_images/flags/Norway.png)
*Format: mp3@CBR320kbps
*Size: 155MB

Tracklist:
1. The Fading Horizon 07:00
2. Yearning 06:33
3. The Ashen Dream 05:37
4. Form Is Emptiness 04:33
5. Untitled 04:18
6. Cold But Strong 09:15
7. S/T (Feat. Northaunt) 07:54
8. Falling, Pt. 2 (Feat. Allseits) 06:04
9. Terrenum Corpus (Feat. Gydja) 07:25
10. Eksistensens Arkitekt (Feat. Psychomanteum) 10:34
11. September Dirge (Alternate Mix) 05:22
******************************
Total playing time: 1:14:35



Extended info
"Collected Obscurities" is a collection of tracks from various compilations and also gathers unique collaboration works with Northaunt, Allseits, Psychomanteum and Gydja. These were released between 2002 and 2012 and many have now been unavailable for a long time. Also included is an early alternate version of "September Dirge" from the "Elegies For the End" album. Obscure and oppressive is the world of Svartsinn, explore this special selection of some of the finest Dark Ambient soundscapes released in the past decade. Prosper In Darkness…

Edition of 500 copies in a 4-panel matte-laminated Digipak.
Co-released by Old Captain and Cyclic Law.


Technical info
(IMG:http://metalarea.org/images/spectrogram/2017_Sep/88dc945885da65ed0c25d84a2ecab6db.png)
Input File: 01 - The Fading Horizon.mp3
Channels : 2
Sample Rate : 44100
Precision : 16-bit
Duration : 00:07:00.04 = 18523720 samples = 31502.9 CDDA sectors
File Size : 16.8M
Bit Rate : 320k
Sample Encoding: MPEG audio (layer I, II or III)
Comments :
Title=The Fading Horizon
Artist=Svartsinn
Album=Collected Obscurities
Tracknumber=01/11
Year=2017
Genre=Dark Ambient



Register


Go to the top of the page
  Insert nick Quick quote
+Quote Post
 
Start new topic
Replies (1 - 1)
post Sep 30 2017, 15:19:49
Post #2

Русь Понад Усе!
**************
Group: Металариец
Posts: 4,056
Releases: 15
From: Украина
On Forums: 11 years 2 weeks
Thanks: 1562 time(s)
Ukraine


Круто (IMG:style_emoticons/default/pray.gif) (IMG:style_emoticons/default/pray.gif) (IMG:style_emoticons/default/pray.gif) !!!
Go to the top of the page
  Insert nick Quick quote
+Quote Post

Reply to this topicStart new topic
1 User(s) are reading this topic (1 Guests and 0 Anonymous Users)
0 Members:

 



- Lo-Fi Version Support form
Copyrights and abuse reports form
Time is now: 21st September 2018 - 00:54:47