Welcome Guest ( Log In | Register )

> И неформату есть предел.

Рэп/хип-хоп/шансон/поп удаляются. Для них есть свои порталы.

 
Reply to this topicStart new topic
> Subliminal - Coping (2006), Industrial/Power Electronics
post Sep 29 2017, 16:26:41
Post #1

As Above, so Below
***********
Group: Металариец
Posts: 1,862
Releases: 17
On Forums: 8 years 9 months
Thanks: 3688 time(s)
Russian Federation


(IMG:http://metalarea.org/images/audiocovers/2017_Sep/acov_tid295378_thumb.jpeg)

*Artist: Subliminal
*Album: Coping
*Year: 2006
*Genre: Industrial/Power Electronics
*Country: Germany (IMG:http://metalarea.org/forum/style_images/flags/Germany.png)
*Format: mp3@CBR320kbps
*Size: 94MB

Tracklist:
1. This Is For You 3:22
2. Push Harder 2:27
3. Play Dead 4:44
4. Maria Himmelfahrt 3:42
5. Sexual Disfunctionale 3:52
6. I Know All About You 4:01
7. So Young With Me 2:45
8. Komm 3:51
9. She's Great 3:19
10. I Wanna Know What Love Is 6:22
11. Coping 4:03
******************************
Total playing time: 42:28

(IMG:http://metalarea.org/images/youtube.png)

Technical info
(IMG:http://metalarea.org/images/spectrogram/2017_Sep/39dccb1bf6df12287a83b9883ace2735.png)
Input File: 03 - Play Dead.mp3
Channels : 2
Sample Rate : 44100
Precision : 16-bit
Duration : 00:04:44.90 = 12563870 samples = 21367.1 CDDA sectors
File Size : 11.5M
Bit Rate : 322k
Sample Encoding: MPEG audio (layer I, II or III)
Comments :
Title=Play Dead
Artist=Subliminal
Album=Coping
Tracknumber=3
Year=2006
Genre=Power Electronics



Register


Go to the top of the page
  Insert nick Quick quote
+Quote Post

Reply to this topicStart new topic
1 User(s) are reading this topic (1 Guests and 0 Anonymous Users)
0 Members:

 



- Lo-Fi Version Support form
Copyrights and abuse reports form
Time is now: 19th September 2018 - 03:19:26