Welcome Guest ( Log In | Register )

> И неформату есть предел.

Рэп/хип-хоп/шансон/поп удаляются. Для них есть свои порталы.

 
Reply to this topicStart new topic
> Subliminal - Gracebudd (2000), Industrial/Power Electronics
post Sep 29 2017, 16:33:57
Post #1

As Above, so Below
***********
Group: Металариец
Posts: 1,862
Releases: 17
On Forums: 8 years 9 months
Thanks: 3688 time(s)
Russian Federation


(IMG:http://metalarea.org/images/audiocovers/2017_Sep/acov_tid295379_thumb.jpg)

*Artist: Subliminal
*Album: Gracebudd
*Year: 2000
*Genre: Industrial/Power Electronics
*Country: Germany (IMG:http://metalarea.org/forum/style_images/flags/Germany.png)
*Format: mp3@CBR320kbps
*Size: 100MB

Tracklist:
1. Import 1:40
2. Hate Me 3:34
3. Gracebudd 3:24
4. Berlin I 3:51
5. Touch 4:09
6. Sin 3:17
7. Wanna Know 3:38
8. Cry Out Loud 4:07
9. Pray 3:32
10. Berlin II 4:40
11. Kids 4:34
12. Don't Wait 4:33
******************************
Total playing time: 44:59

(IMG:http://metalarea.org/images/youtube.png)
(IMG:http://metalarea.org/images/youtube.png)

Technical info
(IMG:http://metalarea.org/images/spectrogram/2017_Sep/61baa2786a2b9bf64f048978be773b55.png)
Input File: 08 - Cry out loud.mp3
Channels : 2
Sample Rate : 44100
Precision : 16-bit
Duration : 00:04:07.43 = 10911751 samples = 18557.4 CDDA sectors
File Size : 9.92M
Bit Rate : 321k
Sample Encoding: MPEG audio (layer I, II or III)
Comments :
Title=Cry out loud
Artist=Subliminal
Album=Gracebudd
Tracknumber=08
Year=2000
Genre=power electronics



Register


Thanks:
Go to the top of the page
  Insert nick Quick quote
+Quote Post

Reply to this topicStart new topic
1 User(s) are reading this topic (1 Guests and 0 Anonymous Users)
0 Members:

 



- Lo-Fi Version Support form
Copyrights and abuse reports form
Time is now: 18th September 2018 - 20:33:03