Welcome Guest ( Log In | Register )

> И неформату есть предел.

Рэп/хип-хоп/шансон/поп удаляются. Для них есть свои порталы.

> November Növelet - Unintended By Nature [best of/compilation] (2016), Industrial/Minimal Synth (D4)
post Sep 29 2017, 17:51:15
Post #1

As Above, so Below
***********
Group: Металариец
Posts: 1,859
Releases: 17
On Forums: 8 years 6 months
Thanks: 3675 time(s)
Russian Federation


(IMG:http://metalarea.org/images/audiocovers/2017_Sep/acov_tid295381_thumb.jpg)

*Artist: November Növelet
*Album: Unintended By Nature [best of/compilation]
*Year: 2016
*Genre: Industrial/Minimal Synth
*Country: Germany (IMG:http://metalarea.org/forum/style_images/flags/Germany.png)
*Format: mp3@CBR320kbps
*Size: 132MB

Tracklist:
1. Heart Of Stone 4:10
2. The Ocean Of Tears 3:43
3. Dancing Queen 3:42
4. Up To Date 4:18
5. Death Singer 2:45
6. We Fade Away 4:59
7. Sacred Man 4:21
8. You Ask Me 3:32
9. November Növelet 4:26
10. Seoreh Cinatas 3:57
11. Rules Of Agony 4:02
12. Bloody November 3:35
13. Ursa Minor 4:00
14. Dying Truth 3:59
15. Blossoms Of Death 4:34
******************************
Total playing time: 1:00:03

(IMG:http://metalarea.org/images/youtube.png)
(IMG:http://metalarea.org/images/youtube.png)

Extended info
This CD contains all the November Növelet EPs: "Heart Of Stone", "Sacred", "More Satanic Heroes", that have appeared to date. It is enhanced by three bonus tracks that were recorded exclusively for this collection.
Galakthorrö.


Technical info
(IMG:http://metalarea.org/images/spectrogram/2017_Sep/68eb18b03b16e2a409699f6176fc9928.png)
Input File: 15. Blossoms Of Death.mp3
Channels : 2
Sample Rate : 44100
Precision : 16-bit
Duration : 00:04:34.65 = 12112241 samples = 20599 CDDA sectors
File Size : 11.0M
Bit Rate : 320k
Sample Encoding: MPEG audio (layer I, II or III)
Comments :
Title=Blossoms Of Death
Artist=November Növelet
Album=Unintended By Nature
Tracknumber=15/15
Year=2016



Register


Go to the top of the page
  Insert nick Quick quote
+Quote Post
 
Start new topic
Replies (1 - 5)
post Oct 1 2017, 09:49:52
Post #2

стазис эпидерсис
***********
Group: Металариец
Posts: 1,794
Releases: 0
On Forums: 2 years 4 months
Thanks: 1099 time(s)
Unknown


до этого момента ни разу не пробовал сей проект, но много слышал о нём.
душевные чудики, искренний электронный минимализм, аутичношумовые ландшафты. тленная милота.
сборник для таких как йа ламеров, именно для ознакомления.
вроде.
Go to the top of the page
  Insert nick Quick quote
+Quote Post
post Oct 1 2017, 18:02:32
Post #3

Пять Литров
*****
Group: Металариец
Posts: 493
Releases: 5
On Forums: 8 years 5 months
Thanks: 292 time(s)
Russian Federation


Лайтовая версия Haus Arafna?
Go to the top of the page
  Insert nick Quick quote
+Quote Post
post Oct 1 2017, 18:57:52
Post #4

Восемь Литров
********
Group: Металариец
Posts: 814
Releases: 5
From: Киев
On Forums: 9 years 1 month
Thanks: 952 time(s)
Ukraine


шугейзно. Забираю (IMG:style_emoticons/default/9.gif)
Go to the top of the page
  Insert nick Quick quote
+Quote Post
post Oct 1 2017, 20:16:48
Post #5

ретроград
**************
Group: Металариец
Posts: 4,344
Releases: 176
On Forums: 11 years 2 days
Thanks: 6352 time(s)
Vatican City


ЦИТАТА(garmonbozia @ Oct 1 2017, 11:49:52) *
до этого момента ни разу не пробовал сей проект

Дебютник зацени


Thanks:
Go to the top of the page
  Insert nick Quick quote
+Quote Post
post Oct 1 2017, 20:21:50
Post #6

стазис эпидерсис
***********
Group: Металариец
Posts: 1,794
Releases: 0
On Forums: 2 years 4 months
Thanks: 1099 time(s)
Unknown


ЦИТАТА(Kazoth @ 2nd October 2017 - 00:16:48) *
Дебютник зацени

с некоторых пор уже ориентируюсь на твои комменты, сегодня уже определился с Дойч Непал - Толеранс (IMG:style_emoticons/default/smile1.gif)


Thanks:
(1) Kazoth,
Go to the top of the page
  Insert nick Quick quote
+Quote Post

Reply to this topicStart new topic
1 User(s) are reading this topic (1 Guests and 0 Anonymous Users)
0 Members:

 



- Lo-Fi Version Support form
Copyrights and abuse reports form
Time is now: 22nd June 2018 - 10:40:19