Welcome Guest ( Log In | Register )

> Oddism - Dance In The Maze (2017), Progressive Math Metal/Mathcore
post Sep 30 2017, 03:37:35
Post #1

Serial Uploader
Group Icon
Group: V.I.P
Posts: 31,402
Releases: 29737
From: Lithuania
On Forums: 9 years 8 months
Thanks: 341526 time(s)
Lithuania


(IMG:http://metalarea.org/images/audiocovers/2017_Sep/acov_tid295412_thumb.jpg)

*Artist: Oddism
*Album: Dance In The Maze
*Year: 2017
*Genre: Progressive Math Metal/Mathcore
*Country: France (IMG:http://metalarea.org/forum/style_images/flags/France.png)
*Format: mp3@CBR320kbps
*Size: 64MB

Tracklist:
01. Foul Scale
02. Brainless Discharge
03. Aegroto
04. Dum Anima Est
05. Spes Est
06. Lost Sleeper
07. Golden Heavens
08. Young Bones
******************************
Total playing time: 27:49



Technical info
(IMG:http://metalarea.org/images/spectrogram/2017_Sep/a19afa47e4b4b0964d07770567249607.png)
Input File: 02. Brainless Discharge.mp3
Channels : 2
Sample Rate : 44100
Precision : 16-bit
Duration : 00:03:44.29 = 9890969 samples = 16821.4 CDDA sectors
File Size : 9.00M
Bit Rate : 321k
Sample Encoding: MPEG audio (layer I, II or III)
Comments :
Title=Brainless Discharge
Artist=Oddism
Album=Dance in the Maze
Tracknumber=2/8
Year=2017



Register


Вернуться к началу страницы
  Insert nick Quick quote
+Цитировать сообщение
 
Создать новую тему
Replies (1 - 1)
post Oct 2 2017, 15:49:48
Post #2

...Only Death Is Real...
**************
Group: Металариец
Posts: 2,529
Releases: 15
On Forums: 7 years 6 months
Thanks: 1570 time(s)
Russian Federation


Вернуться к началу страницы
  Insert nick Quick quote
+Цитировать сообщение

ОтветитьСоздать новую тему
1 User(s) are reading this topic (1 Guests and 0 Anonymous Users)
0 Members:

 



- Lo-Fi Version Support form
Copyrights and abuse reports form
Time is now: 19th February 2018 - 20:46:19