Welcome Guest ( Log In | Register )

> И неформату есть предел.

Рэп/хип-хоп/шансон/поп удаляются. Для них есть свои порталы.

 
ОтветитьСоздать новую тему
> Forgotten Kingdoms - Forgotten Kingdoms (Demo I) [demo] (2015), Dungeon Synth
post Sep 30 2017, 07:53:25
Post #1

...
Group Icon
Group: S-moderation team
Posts: 5,355
Releases: 1129
On Forums: 6 years 11 months
Thanks: 26582 time(s)
Unknown


(IMG:https://metalarea.org/images/audiocovers/2017_Sep/acov_tid295425_thumb.jpg)

*Artist: Forgotten Kingdoms
*Album: Forgotten Kingdoms (Demo I) [demo]
*Year: 2015
*Genre: Dungeon Synth
*Country: Australia (IMG:https://metalarea.org/forum/style_images/flags/Australia.png)
*Format: mp3@CBR320kbps
*Size: 26MB

Tracklist:
1. Untrodden Paths Forever Winding 05:37
2. Forgotten Kingdoms 03:25
3. A Sombre Farewell To The Dead 01:59
******************************
Total playing time: 11:01



Technical info
(IMG:https://metalarea.org/images/spectrogram/2017_Sep/855ee30a40351a23b7b7a8c17a66bb77.png)
Input File: 02 Forgotten Kingdoms.mp3
Channels : 2
Sample Rate : 44100
Precision : 16-bit
Duration : 00:03:25.94 = 9082042 samples = 15445.6 CDDA sectors
File Size : 8.39M
Bit Rate : 326k
Sample Encoding: MPEG audio (layer I, II or III)
Comments :
Title=Forgotten Kingdoms
Artist=Forgotten Kingdoms
Album=Forgotten Kingdoms (demo I)
Tracknumber=2
Year=2015



Register


Вернуться к началу страницы
  Insert nick Quick quote
+Цитировать сообщение

ОтветитьСоздать новую тему
1 User(s) are reading this topic (1 Guests and 0 Anonymous Users)
0 Members:

 



- Lo-Fi Version Support form
Copyrights and abuse reports form
Time is now: 19th February 2018 - 20:47:29