Welcome Guest ( Log In | Register )

> И неформату есть предел.

Рэп/хип-хоп/шансон/поп удаляются. Для них есть свои порталы.

 
Reply to this topicStart new topic
> Forgotten Kingdoms - Crowned In Forlorn Darkness [demo] (2017), Dungeon Synth
post Sep 30 2017, 08:10:18
Post #1

...
Group Icon
Group: S-moderation team
Posts: 6,960
Releases: 1286
On Forums: 7 years 6 months
Thanks: 34281 time(s)
Croatia


(IMG:https://metalarea.org/images/audiocovers/2017_Sep/acov_tid295427_thumb.jpg)

*Artist: Forgotten Kingdoms
*Album: Crowned In Forlorn Darkness [demo]
*Year: 2017
*Genre: Dungeon Synth
*Country: Australia (IMG:https://metalarea.org/forum/style_images/flags/Australia.png)
*Format: mp3@CBR320kbps
*Size: 32MB

Tracklist:
1. Crowned In Forlorn Darkness 08:21
2. Tales of Great Beasts from Below the Depths.. 05:25
******************************
Total playing time: 13:46



Extended info
Released on tape by Tour de Garde and limited to 100 copies.


Technical info
(IMG:https://metalarea.org/images/spectrogram/2017_Sep/860fa5d85f4963c54f7d2837226af831.png)
Input File: 01 Crowned in Forlorn Darkness.mp3
Channels : 2
Sample Rate : 44100
Precision : 16-bit
Duration : 00:08:21.81 = 22129689 samples = 37635.5 CDDA sectors
File Size : 20.2M
Bit Rate : 321k
Sample Encoding: MPEG audio (layer I, II or III)
Comments :
Title=Crowned in Forlorn Darkness
Artist=Forgotten Kingdoms
Album=Crowned in Forlorn Darkness
Tracknumber=1
Year=2017



Register


Go to the top of the page
  Insert nick Quick quote
+Quote Post

Reply to this topicStart new topic
1 User(s) are reading this topic (1 Guests and 0 Anonymous Users)
0 Members:

 



- Lo-Fi Version Support form
Copyrights and abuse reports form
Time is now: 19th September 2018 - 02:56:16