Welcome Guest ( Log In | Register )

> Abstract Symphony - Out Of The Ashes Into The Light (2017), Power Metal
post Sep 30 2017, 17:09:38
Post #1

Восемь Литров
********
Group: Металариец
Posts: 879
Releases: 712
From: Одесса
On Forums: 9 years 8 months
Thanks: 5661 time(s)
Ukraine


(IMG:http://metalarea.org/images/audiocovers/2017_Sep/acov_tid295443_thumb.jpg)

*Artist: Abstract Symphony
*Album: Out Of The Ashes Into The Light
*Year: 2017
*Genre: Power Metal
*Country: Chile (IMG:http://metalarea.org/forum/style_images/flags/Chile.png)
*Format: mp3@CBR320kbps
*Size: 111MB

Tracklist:
1. Into the Light 01:03 instrumental
2. New Kingdom 04:28
3. Dreams (Don't Fade) 05:01
4. Into Your Eyes 04:38
5. Wings Without Destiny 00:29 instrumental
6. The Master of Sorrow 06:19
7. Who’s to Blame 03:40
8. Dark Wings 05:25
9. End of Days 01:11
10. Wondering Why 05:33
11. Nobody Knows 04:00
12. Infinite Desire 05:00
13. Out of the Ashes 01:30 instrumental
******************************
Total playing time: 48:17



Extended info
В Лоу

Line - up:

Christopher Farías - Bass
Sebastián Pontigo - Drums
Esteban Hulloa C. - Guitars
Esteban Hulloa V. - Guitars
Marcelo Carvajal - Vocals
J.J. Roldan - Keyboards

(IMG:https://www.metal-archives.com/images/1/1/6/5/116542_photo.jpg?4740)


Technical info
(IMG:http://metalarea.org/images/spectrogram/2017_Sep/6f529097cb4f38dd86b424a6700c8b41.png)
Input File: 04. Into Your Eyes.mp3
Channels : 2
Sample Rate : 44100
Precision : 16-bit
Duration : 00:04:38.21 = 12268885 samples = 20865.5 CDDA sectors
File Size : 11.1M
Bit Rate : 320k
Sample Encoding: MPEG audio (layer I, II or III)
Comments :
Title=Into Your Eyes
Artist=Abstract Symphony
Album=Out Of The Ashes Into The Light
Tracknumber=04
Year=2017
Genre=Power Metal



Register


Thanks:
Вернуться к началу страницы
  Insert nick Quick quote
+Цитировать сообщение
 
Создать новую тему
Replies (1 - 2)
post Sep 30 2017, 18:10:41
Post #2

21st Century Schizoid Man
**************
Group: Металариец
Posts: 4,862
Releases: 66
From: Moscow
On Forums: 9 years 9 months
Thanks: 3861 time(s)
Russian Federation


Ранний Мальмстин-воршип.


Thanks:
(1) metala,
Вернуться к началу страницы
  Insert nick Quick quote
+Цитировать сообщение
post Sep 30 2017, 18:15:13
Post #3

Мегаманьяк
***********
Group: Металариец
Posts: 1,734
Releases: 0
On Forums: 5 years 3 months
Thanks: 2263 time(s)
Russian Federation


Альтернативная ссылка
Register
Вернуться к началу страницы
  Insert nick Quick quote
+Цитировать сообщение

ОтветитьСоздать новую тему
1 User(s) are reading this topic (1 Guests and 0 Anonymous Users)
0 Members:

 



- Lo-Fi Version Support form
Copyrights and abuse reports form
Time is now: 24th February 2018 - 02:57:31