Welcome Guest ( Log In | Register )

 
Reply to this topicStart new topic
> Malacath - No Sense In Self Worth (The Dissolution Of Wish And Dream) (2017), Black Metal (D6)
post Sep 30 2017, 22:09:20
Post #1

Маньяк
**********
Group: Металариец
Posts: 1,406
Releases: 1194
From: Одесса
On Forums: 10 years 3 months
Thanks: 9297 time(s)
Ukraine


(IMG:http://metalarea.org/images/audiocovers/2017_Sep/acov_tid295452_thumb.jpg)

*Artist: Malacath
*Album: No Sense In Self Worth (The Dissolution Of Wish And Dream)
*Year: 2017
*Genre: Black Metal
*Country: United States (IMG:http://metalarea.org/forum/style_images/flags/United%20States.png)
*Format: mp3@CBR320kbps
*Size: 130MB

Tracklist:
1. At the Ending of the Clock 01:51
2. No Sense in Self Worth 12:56
3. Conqueror 14:53
4. Woods of Isolation 06:51
5. Yearning 12:10
6. Proud Flesh 06:45
******************************
Total playing time: 55:26



Extended info
Line - up:

Lykos - Guitars, Bass, Vocals (Hiss, Sassu Wunnu, Yersinia Pestis, Gamaliel (live), ex-Talun-Karkhu)

Guest/Session:

Katsantonis - Drums
Architeuthis - Guitars (track 6) (Bog of the Infidel, ex-Nefarious)
Profanator - Lyrics (track 4) (Deathymn)
Bloodfuck - Lyrics (track 3) (Bog of the Infidel, ex-Sorcery, ex-Nefarious)
Satanist - Vocals, Lyrics (track 2) (Bog of the Infidel, ex-Nefarious)

(IMG:https://www.metal-archives.com/images/3/5/4/0/3540362414_photo.jpg?3349)


Technical info
(IMG:http://metalarea.org/images/spectrogram/2017_Sep/a282fdf2797c7b2ce76d8ea33fa8c6a3.png)
Input File: 01. At the Ending of the Clock.mp3
Channels : 2
Sample Rate : 48000
Precision : 16-bit
Duration : 00:01:51.05 = 5330448 samples ~ 8328.82 CDDA sectors
File Size : 4.45M
Bit Rate : 320k
Sample Encoding: MPEG audio (layer I, II or III)
Comments :
Title=At the Ending of the Clock
Artist=Malacath
Album=No Sense in Self Worth (The Dissolution of Wish and Dream)
Tracknumber=1
Year=2017
Genre=138



Register


Go to the top of the page
  Insert nick Quick quote
+Quote Post

Reply to this topicStart new topic
1 User(s) are reading this topic (1 Guests and 0 Anonymous Users)
0 Members:

 



- Lo-Fi Version Support form
Copyrights and abuse reports form
Time is now: 25th September 2018 - 18:16:52