Welcome Guest ( Log In | Register )

> И неформату есть предел.

Рэп/хип-хоп/шансон/поп удаляются. Для них есть свои порталы.

 
ОтветитьСоздать новую тему
> Cock Sparrer - Forever (2017), Punk Rock
post Oct 1 2017, 01:22:38
Post #1

Попсовик от брутала
**************
Group: Металариец
Posts: 5,594
Releases: 51
From: Минск
On Forums: 9 years 2 months
Thanks: 4441 time(s)
Belarus


(IMG:http://metalarea.org/images/audiocovers/2017_Oct/acov_tid295456_thumb.jpg)

*Artist: Cock Sparrer
*Album: Forever
*Year: 2017
*Genre: Punk Rock
*Country: United Kingdom (IMG:http://metalarea.org/forum/style_images/flags/United%20Kingdom.png)
*Format: mp3@CBR320kbps
*Size: 113MB

Tracklist:
01. One By One
02. Believe
03. Gonna Be Alright
04. Don't Tell Anyone Anything
05. Family Of One
06. Every Step Of The Way
07. In My Town
08. Contender
09. Nothing Like You
10. I've Had Enough
11. Somebody's Brother; Somebody's Son
12. Us Against The World
13. Up With This
14. Sons Of The New Millennium
15. You Lost The War
16. We're The Good Guys
******************************
Total playing time: 49:34

Extended info
На удивление бодрый и моложавый альбом от влиятельных старичков. Хитов целая пачка.


Technical info
(IMG:http://metalarea.org/images/spectrogram/2017_Oct/c4781a40c3f2610e02aad80753428d1c.png)
Input File: 01. One By One.mp3
Channels : 2
Sample Rate : 44100
Precision : 16-bit
Duration : 00:02:57.23 = 7815887 samples = 13292.3 CDDA sectors
File Size : 7.09M
Bit Rate : 320k
Sample Encoding: MPEG audio (layer I, II or III)
Comments :
Title=One By One
Artist=Cock Sparrer
Album=Forever
Tracknumber=1/16
Year=2017
Genre=Oi! / Street Punk



Register


Вернуться к началу страницы
  Insert nick Quick quote
+Цитировать сообщение

ОтветитьСоздать новую тему
1 User(s) are reading this topic (1 Guests and 0 Anonymous Users)
0 Members:

 



- Lo-Fi Version Support form
Copyrights and abuse reports form
Time is now: 19th February 2018 - 20:47:49