Welcome Guest ( Log In | Register )

> И неформату есть предел.

Рэп/хип-хоп/шансон/поп удаляются. Для них есть свои порталы.

 
ОтветитьСоздать новую тему
> Sacrificia - Praedestinatione (2017), Ambient (D4)
post Oct 1 2017, 15:02:41
Post #1

Group: Подсевший
Posts: 30
Releases: 20
On Forums: 3 years 10 months
Thanks: 277 time(s)
Unknown


(IMG:https://metalarea.org/images/audiocovers/2017_Oct/acov_tid295493_thumb.jpg)

*Artist: Sacrificia
*Album: Praedestinatione
*Year: 2017
*Genre: Ambient
*Country: Russian Federation (IMG:https://metalarea.org/forum/style_images/flags/Russian%20Federation.png)
*Format: mp3@CBR320kbps
*Size: 121MB

Tracklist:
1. Existentibus In Carcere De Deliria
2. Desperatio
3. Sepulturae Spes
4. Praedestinatione
5. In Compedibus Vitae
******************************
Total playing time: 53:50



Technical info
(IMG:https://metalarea.org/images/spectrogram/2017_Oct/44c07d7269df27902ed2a8efb3ac86d2.png)
Input File: 01 Existentibus in carcere de deliria.mp3
Channels : 2
Sample Rate : 44100
Precision : 16-bit
Duration : 00:11:37.69 = 30768305 samples = 52327 CDDA sectors
File Size : 28.0M
Bit Rate : 321k
Sample Encoding: MPEG audio (layer I, II or III)
Comments :
Title=Existentibus in carcere de deliria
Artist=Sacrificia
Album=Praedestinatione
Tracknumber=1
Year=2017



Register


Thanks:
(1) varlam4,
Вернуться к началу страницы
  Insert nick Quick quote
+Цитировать сообщение

ОтветитьСоздать новую тему
1 User(s) are reading this topic (1 Guests and 0 Anonymous Users)
0 Members:

 



- Lo-Fi Version Support form
Copyrights and abuse reports form
Time is now: 19th February 2018 - 20:38:20