Welcome Guest ( Log In | Register )

> Big Iron - Tierra Del Diablo (1997), Groove Metal
post Oct 1 2017, 17:43:32
Post #1
BAN
RO till
Feb 26 2018, 11:14:38



(IMG:https://metalarea.org/images/audiocovers/2017_Oct/acov_tid295501_thumb.jpg)

*Artist: Big Iron
*Album: Tierra Del Diablo
*Year: 1997
*Genre: Groove Metal
*Country: United States (IMG:https://metalarea.org/forum/style_images/flags/United%20States.png)
*Format: mp3@CBR320kbps
*Size: 108MB

Tracklist:
01. Suffocation 04:16
02. The Black Sheep Excuse 04:00
03. Closet 05:35
04. Soul of a Twenty-Two Year Old Lover 03:07
05. Beautiful Life 04:38
06. Individious Exhibition 03:03
07. Slow Southern Crawl 02:50
08. Crush in a Mudfield 03:14
09. Confidence Man 03:39
10. Politics of Intimidation 03:20
11. Feel 04:35
12. Sometimes 02:48
13. Wallflower 2:15
******************************
Total playing time: 47:20

Technical info
(IMG:https://metalarea.org/images/spectrogram/2017_Oct/9f5f8deaf9d4ba8b461c8c1ec8c61b91.png)
Input File: Big Iron - Tierra Del Diablo - 03 - Closet.mp3
Channels : 2
Sample Rate : 44100
Precision : 16-bit
Duration : 00:05:35.42 = 14791890 samples = 25156.3 CDDA sectors
File Size : 13.4M
Bit Rate : 320k
Sample Encoding: MPEG audio (layer I, II or III)



Register


Вернуться к началу страницы
  Insert nick Quick quote
+Цитировать сообщение
 
Создать новую тему
Replies (1 - 2)
post Oct 2 2017, 00:22:34
Post #2
BAN
RO till
Feb 26 2018, 11:14:38



Register


Вернуться к началу страницы
  Insert nick Quick quote
+Цитировать сообщение
post Oct 15 2017, 06:14:49
Post #3

Восемь Литров
********
Group: Металариец
Posts: 843
Releases: 42
On Forums: 10 years 11 months
Thanks: 686 time(s)
Ukraine


Годный релиз кстати. (IMG:style_emoticons/default/smile1.gif) Смесь Пантеры с ранним Мешин Хед. Иногда не поймешь чего больше.

Кстати... чем ближе конец альбома, тем лучше песни. (IMG:style_emoticons/default/20.gif) Редкое явление.
Вернуться к началу страницы
  Insert nick Quick quote
+Цитировать сообщение

ОтветитьСоздать новую тему
2 User(s) are reading this topic (2 Guests and 0 Anonymous Users)
0 Members:

 



- Lo-Fi Version Support form
Copyrights and abuse reports form
Time is now: 24th February 2018 - 19:05:41