Welcome Guest ( Log In | Register )

 
ОтветитьСоздать новую тему
> Tank - Family (1996), Groove Metal/Hardcore (D)
post Oct 1 2017, 17:51:08
Post #1
BAN
RO till
Feb 26 2018, 11:14:38



(IMG:https://metalarea.org/images/audiocovers/2017_Oct/acov_tid295502_thumb.jpg)

*Artist: Tank
*Album: Family [ep]
*Year: 1996
*Genre: Groove Metal/Hardcore
*Country: United States (IMG:https://metalarea.org/forum/style_images/flags/United%20States.png)
*Format: mp3@CBR320kbps
*Size: 36MB

Tracklist:
01. Today, But Not Tomorrow 3:25
02. Hardstance 5:03
03. Snap The Line 2:35
04. Difference 2:38
05. TCB 2:14
******************************
Total playing time: 15:55

Technical info
(IMG:https://metalarea.org/images/spectrogram/2017_Oct/f140df772b9a443e1f2ec9ca7f23ded7.png)
Input File: 1. Today But Not Tomorrow.mp3
Channels : 2
Sample Rate : 44100
Precision : 16-bit
Duration : 00:03:25.86 = 9078602 samples = 15439.8 CDDA sectors
File Size : 8.23M
Bit Rate : 320k
Sample Encoding: MPEG audio (layer I, II or III)



Register


Thanks:
Вернуться к началу страницы
  Insert nick Quick quote
+Цитировать сообщение

ОтветитьСоздать новую тему
1 User(s) are reading this topic (1 Guests and 0 Anonymous Users)
0 Members:

 



- Lo-Fi Version Support form
Copyrights and abuse reports form
Time is now: 24th February 2018 - 02:53:26