Welcome Guest ( Log In | Register )

 
Reply to this topicStart new topic
> Perceptual Distortion - Suck My Heaven (1997), Groove Metal/Hardcore
post Oct 1 2017, 17:58:55
Post #1
BAN
Banned till
Jun 28 2018, 15:53:36



(IMG:https://metalarea.org/images/audiocovers/2017_Oct/acov_tid295504_thumb.jpg)

*Artist: Perceptual Distortion
*Album: Suck My Heaven
*Year: 1997
*Genre: Groove Metal/Hardcore
*Country: Canada (IMG:https://metalarea.org/forum/style_images/flags/Canada.png)
*Format: mp3@CBR320kbps
*Size: 85MB

Tracklist:
01. Welcome To The End 03:23
02. Non Fiction 03:25
03. Downer 04:09
04. Filth Angel 04:21
05. Pattern 13 05:48
06. Suck 01:56
07. The Inhumane Society 03:17
08. Dead End Season 04:16
09. Seeing Eye Dog 08:36
******************************
Total playing time: 39:11

Technical info
(IMG:https://metalarea.org/images/spectrogram/2017_Oct/5aa3da0792ac5505003c3e66de17296d.png)
Input File: 02. NON FICTION.mp3
Channels : 2
Sample Rate : 44100
Precision : 16-bit
Duration : 00:03:23.00 = 8952300 samples = 15225 CDDA sectors
File Size : 8.12M
Bit Rate : 320k
Sample Encoding: MPEG audio (layer I, II or III)



Register


Go to the top of the page
  Insert nick Quick quote
+Quote Post

Reply to this topicStart new topic
1 User(s) are reading this topic (1 Guests and 0 Anonymous Users)
0 Members:

 



- Lo-Fi Version Support form
Copyrights and abuse reports form
Time is now: 23rd June 2018 - 16:40:24