Welcome Guest ( Log In | Register )

> И неформату есть предел.

Рэп/хип-хоп/шансон/поп удаляются. Для них есть свои порталы.

> Kadavar - Rough Times (2017), Psychedelic/Stoner/Hard Rock (D6)
post Oct 1 2017, 19:08:31
Post #1

напряжный чувак (с)
***********
Group: Металариец
Posts: 1,889
Releases: 24
From: Киев
On Forums: 11 years 7 months
Thanks: 2449 time(s)
Ukraine


(IMG:https://metalarea.org/images/audiocovers/2017_Oct/acov_tid295509_thumb.jpg)

*Artist: Kadavar
*Album: Rough Times
*Year: 2017
*Genre: Psychedelic/Stoner/Hard Rock
*Country: Germany (IMG:https://metalarea.org/forum/style_images/flags/Germany.png)
*Format: mp3@CBR320kbps
*Size: 103MB

Tracklist:
01. Rough Times (3:38)
02. Into The Wormhole (4:18)
03. Skeleton Blues (4:24)
04. Die Baby Die (4:18)
05. Vampires (4:49)
06. Tribulation Nation (5:04)
07. Words Of Evil (3:37)
08. The Lost Child (5:52)
09. You Found The Best In Me (4:58)
10. A L'ombre Du Temps (3:57)
******************************
Total playing time: 44:55

(IMG:https://metalarea.org/images/youtube.png)

Technical info
(IMG:https://metalarea.org/images/spectrogram/2017_Oct/00e361731ca7d7398d2c943c594a4680.png)
Input File: 01 - Rough Times.mp3
Channels : 2
Sample Rate : 44100
Precision : 16-bit
Duration : 00:03:38.20 = 9622532 samples = 16364.9 CDDA sectors
File Size : 8.83M
Bit Rate : 324k
Sample Encoding: MPEG audio (layer I, II or III)
Comments :
Title=Rough Times
Artist=Kadavar
Album=Rough Times
Tracknumber=1
Year=2017
Genre=Psychedelic/Stoner/Hard Rock



Register


Go to the top of the page
  Insert nick Quick quote
+Quote Post
 
Start new topic
Replies (1 - 2)
post Oct 2 2017, 08:39:30
Post #2

Литр
*
Group: Подсевший
Posts: 68
Releases: 0
From: Mayan Kingdom
On Forums: 9 years 10 months
Thanks: 5 time(s)
Guatemala


Mirror, please? Thanks!
Go to the top of the page
  Insert nick Quick quote
+Quote Post
post Oct 3 2017, 05:24:25
Post #3

MélöManiäc
*****
Group: Металариец
Posts: 447
Releases: 36
From: КубанЬ
On Forums: 9 years 8 months
Thanks: 788 time(s)
Russian Federation


Register


Thanks:
Go to the top of the page
  Insert nick Quick quote
+Quote Post

Reply to this topicStart new topic
1 User(s) are reading this topic (1 Guests and 0 Anonymous Users)
0 Members:

 



- Lo-Fi Version Support form
Copyrights and abuse reports form
Time is now: 21st September 2018 - 01:56:16