Welcome Guest ( Log In | Register )

> И неформату есть предел.

Рэп/хип-хоп/шансон/поп удаляются. Для них есть свои порталы.

> Da-Sein - Death Is The Most Certain Possibility (2017), Industrial/Minimal Synth
post Oct 1 2017, 19:47:58
Post #1

As Above, so Below
***********
Group: Металариец
Posts: 1,855
Releases: 17
On Forums: 8 years 2 months
Thanks: 3630 time(s)
Russian Federation


(IMG:http://metalarea.org/images/audiocovers/2017_Oct/acov_tid295510_thumb.jpg)

*Artist: Da-Sein
*Album: Death Is The Most Certain Possibility
*Year: 2017
*Genre: Industrial/Minimal Synth
*Country: Spain (IMG:http://metalarea.org/forum/style_images/flags/Spain.png)
*Format: mp3@CBR320kbps
*Size: 101MB

Tracklist:
1. Spiteful 5:11
2. Jailbird 3:21
3. Dead Eyed Soul 6:12
4. Death Drive 2:25
5. You Are Obsolete 4:21
6. Black Arts 3:18
7. Cold Blooded Rush 3:11
8. Nosebleed 4:34
9. Evils 3:44
10. Ascension 3:10
11. Shake Your Heaven 4:57
******************************
Total playing time: 44:24

(IMG:http://metalarea.org/images/youtube.png)
(IMG:http://metalarea.org/images/youtube.png)

Technical info
(IMG:http://metalarea.org/images/spectrogram/2017_Oct/168d950b67a27e1b86d2ee069da47b32.png)
Input File: 02 - Da-Sein - Jailbird.mp3
Channels : 2
Sample Rate : 44100
Precision : 16-bit
Duration : 00:03:21.77 = 8898189 samples = 15133 CDDA sectors
File Size : 8.07M
Bit Rate : 320k
Sample Encoding: MPEG audio (layer I, II or III)
Comments :
Title=Jailbird
Artist=Da-Sein
Album=Death Is The Most Certain Possibility
Tracknumber=02
Year=2017
Genre=Industrial/Minimal Synth



Register


Thanks:
Вернуться к началу страницы
  Insert nick Quick quote
+Цитировать сообщение
 
Создать новую тему
Replies (1 - 6)
post Oct 4 2017, 18:49:55
Post #2

стазис эпидерсис
***********
Group: Металариец
Posts: 1,592
Releases: 0
On Forums: 2 years 3 weeks
Thanks: 963 time(s)
Unknown


Отличный альбом кстати, даже немного жуткий.
Как раз музыка для сегодняшнего времени года, желтые опавшие листья, серость, пора упадка и гниения.
Йа проникся. Червивые людские души в большом червивом плоде существования.
Вернуться к началу страницы
  Insert nick Quick quote
+Цитировать сообщение
post Oct 4 2017, 20:35:50
Post #3
BAN
RO till
Feb 24 2018, 11:16:59



Не верьте ему.
Вернуться к началу страницы
  Insert nick Quick quote
+Цитировать сообщение
post Oct 4 2017, 20:39:39
Post #4

стазис эпидерсис
***********
Group: Металариец
Posts: 1,592
Releases: 0
On Forums: 2 years 3 weeks
Thanks: 963 time(s)
Unknown


ЦИТАТА(mittal @ 5th October 2017 - 00:35:50) *
Не верьте ему.

да всем пофиг.
Вернуться к началу страницы
  Insert nick Quick quote
+Цитировать сообщение
post Oct 4 2017, 20:41:56
Post #5

Правь статус, ####!111
**************
Group: Металариец
Posts: 30,441
Releases: 470
On Forums: 8 years 8 months
Thanks: 23386 time(s)
Russian Federation


ЦИТАТА(mittal @ Oct 4 2017, 23:35:50) *
Не верьте ему.


Кому именно?
Вернуться к началу страницы
  Insert nick Quick quote
+Цитировать сообщение
post Oct 4 2017, 20:45:18
Post #6
BAN
RO till
Feb 24 2018, 11:16:59



ЦИТАТА(vosmidesijatye @ 4th October 2017 - 22:41:56) *
Кому именно?

Никому. Кроме меня
Вернуться к началу страницы
  Insert nick Quick quote
+Цитировать сообщение
post Oct 4 2017, 20:46:24
Post #7

holy trident
********
Group: Металариец
Posts: 814
Releases: 0
From: кенома
On Forums: 5 years 1 month
Thanks: 532 time(s)
Unknown


это по хайдеггеру?
Вернуться к началу страницы
  Insert nick Quick quote
+Цитировать сообщение

ОтветитьСоздать новую тему
2 User(s) are reading this topic (2 Guests and 0 Anonymous Users)
0 Members:

 



- Lo-Fi Version Support form
Copyrights and abuse reports form
Time is now: 24th February 2018 - 19:04:39