Welcome Guest ( Log In | Register )

> И неформату есть предел.

Рэп/хип-хоп/шансон/поп удаляются. Для них есть свои порталы.

 
ОтветитьСоздать новую тему
> Æther & Trepaneringsritualen - Edifice Of Nine Sauvastikas [split] (2012), Dark Ambient/Industrial | Dark Ambient/Industrial (D12)
post Oct 2 2017, 00:17:21
Post #1

Angel Eviscerator
**************
Group: Металариец
Posts: 4,017
Releases: 2693
From: 55°35’N 38°08’E
On Forums: 9 years 7 months
Thanks: 51466 time(s)
Russian Federation


(IMG:http://metalarea.org/images/audiocovers/2017_Oct/acov_tid295515_thumb.jpg)

*Artist: Æther & Trepaneringsritualen
*Album: Edifice Of Nine Sauvastikas [split]
*Year: 2012
*Genre: Dark Ambient/Industrial | Dark Ambient/Industrial
*Country: Sweden (IMG:http://metalarea.org/forum/style_images/flags/Sweden.png) | Sweden (IMG:http://metalarea.org/forum/style_images/flags/Sweden.png)
*Format: mp3@CBR320kbps
*Size: 46MB

Tracklist:
Æther:
1.Edifice of Nine Sauvastikas 09:58
Trepaneringsritualen:
2.Edifice of Nine Sauvastikas 10:00
******************************
Total playing time: 19:58



Technical info
(IMG:http://metalarea.org/images/spectrogram/2017_Oct/9fc9c5b07dc498ccc535d2badb0c180f.png)
Input File: 01 ?ther - Edifice of Nine Sauvastikas.mp3
Channels : 2
Sample Rate : 44100
Precision : 16-bit
Duration : 00:09:58.60 = 26398348 samples = 44895.1 CDDA sectors
File Size : 24.1M
Bit Rate : 322k
Sample Encoding: MPEG audio (layer I, II or III)
Comments :
Title=Edifice of Nine Sauvastikas
Artist=Г†ther
Album=Edifice of Nine Sauvastikas
Tracknumber=1
Year=2012
Genre=Other



Register


Вернуться к началу страницы
  Insert nick Quick quote
+Цитировать сообщение

ОтветитьСоздать новую тему
2 User(s) are reading this topic (2 Guests and 0 Anonymous Users)
0 Members:

 



- Lo-Fi Version Support form
Copyrights and abuse reports form
Time is now: 24th February 2018 - 19:04:03