Welcome Guest ( Log In | Register )

> И неформату есть предел.

Рэп/хип-хоп/шансон/поп удаляются. Для них есть свои порталы.

 
ОтветитьСоздать новую тему
> Deathstench & Trepaneringsritualen - Deathstench/Trepaneringsritualen [split] (2013), Dark Ambient/Noise | Dark Ambient/Industrial (D4)(D12)
post Oct 2 2017, 01:04:37
Post #1

Angel Eviscerator
**************
Group: Металариец
Posts: 4,014
Releases: 2691
From: 55°35’N 38°08’E
On Forums: 9 years 7 months
Thanks: 51435 time(s)
Russian Federation


(IMG:http://metalarea.org/images/audiocovers/2017_Oct/acov_tid295517_thumb.jpg)

*Artist: Deathstench & Trepaneringsritualen
*Album: Deathstench/Trepaneringsritualen [split]
*Year: 2013
*Genre: Dark Ambient/Noise | Dark Ambient/Industrial
*Country: United States (IMG:http://metalarea.org/forum/style_images/flags/United%20States.png) | Sweden (IMG:http://metalarea.org/forum/style_images/flags/Sweden.png)
*Format: mp3@CBR320kbps
*Size: 79MB

Tracklist:
Deathstench:
1.Damnum Minatum 05:21
2.Temples Of Dust 09:21

Trepaneringsritualen:
3.Åkallan: Mímir 17:54
******************************
Total playing time: 32:36



Technical info
(IMG:http://metalarea.org/images/spectrogram/2017_Oct/d521947756753788a7b47df606ce3869.png)
Input File: 01 Damnum Minatum.mp3
Channels : 2
Sample Rate : 44100
Precision : 16-bit
Duration : 00:05:21.84 = 14192924 samples = 24137.6 CDDA sectors
File Size : 13.0M
Bit Rate : 323k
Sample Encoding: MPEG audio (layer I, II or III)
Comments :
Title=Damnum Minatum
Artist=Deathstench
Album=Deathstench / Trepaneringsritualen
Tracknumber=1
Year=2013
Genre=Other



Register


Вернуться к началу страницы
  Insert nick Quick quote
+Цитировать сообщение

ОтветитьСоздать новую тему
2 User(s) are reading this topic (2 Guests and 0 Anonymous Users)
0 Members:

 



- Lo-Fi Version Support form
Copyrights and abuse reports form
Time is now: 23rd February 2018 - 20:48:58