Welcome Guest ( Log In | Register )

> И неформату есть предел.

Рэп/хип-хоп/шансон/поп удаляются. Для них есть свои порталы.

 
Reply to this topicStart new topic
> Melek-Tha & Nazxul - Left Hand Path [split] (2010), Dark Ambient/Noise/Industrial | Dark Ambient/Noise (D11)(D
Blake
post Oct 2 2017, 12:15:55
Post #1

Guests team






(IMG:http://metalarea.org/images/audiocovers/2017_Oct/acov_tid295537_thumb.jpg)

*Artist: Melek-Tha & Nazxul
*Album: Left Hand Path [split]
*Year: 2010
*Genre: Dark Ambient/Noise/Industrial | Dark Ambient/Noise
*Country: France (IMG:http://metalarea.org/forum/style_images/flags/France.png) | Australia (IMG:http://metalarea.org/forum/style_images/flags/Australia.png)
*Format: mp3@CBR320kbps
*Size: 301MB

Tracklist:
CD 1 - Melek-Tha:
1. The Tyranny Spectrum
2. Annihilate The World Order
3. Les Terres Ensanglantees
4. Explore The Depths Of Darkness
5. Obsculum Obscenum
6. Left Hand Path
7. Hymn To Luciferian Legion
CD 2 - Melek-Tha & Nazxul:
1. Nazxul - I
2. Melek-Tha - The Kelemath Black Fire
3. Melek-Tha - Our Law Is Chaos
4. Nazxul - II
5. Melek-Tha - The Grimoire Of Ancient Aeons
6. Nazxul - III
7. Melek-Tha - L'esprit Mutile
8. Nazxul - IV
9. Nazxul - V
******************************
Total playing time: 2:31:55

Extended info
Not On Label, Self-released, 2CDr


Technical info
(IMG:http://metalarea.org/images/spectrogram/2017_Oct/1b312d8cdac4a04beaa618f8f526ac50.png)
Input File: 01.Melek-Tha - The Tyranny Spectrum.mp3
Channels : 2
Sample Rate : 44100
Precision : 16-bit
Duration : 00:10:07.04 = 26770464 samples = 45528 CDDA sectors
File Size : 24.3M
Bit Rate : 320k
Sample Encoding: MPEG audio (layer I, II or III)
Comments :
Title= The Tyranny Spectrum
Artist=Melek-Tha
Album=Left Hand Path (CD1)
Tracknumber=1
Genre=Other



Register


Go to the top of the page
  Insert nick Quick quote
+Quote Post

Reply to this topicStart new topic
1 User(s) are reading this topic (1 Guests and 0 Anonymous Users)
0 Members:

 



- Lo-Fi Version Support form
Copyrights and abuse reports form
Time is now: 22nd June 2018 - 10:27:40