Welcome Guest ( Log In | Register )

> И неформату есть предел.

Рэп/хип-хоп/шансон/поп удаляются. Для них есть свои порталы.

 
ОтветитьСоздать новую тему
> Machines On Blast - Tin Man Empire (2016), Dark Electro/EBM/Industrial Metal
post Oct 3 2017, 11:35:33
Post #1

Два Литра
**
Group: Завсегдатай
Posts: 181
Releases: 16
On Forums: 11 years 1 month
Thanks: 507 time(s)
Lithuania


(IMG:https://metalarea.org/images/audiocovers/2017_Oct/acov_tid295573_thumb.jpg)

*Artist: Machines On Blast
*Album: Tin Man Empire
*Year: 2016
*Genre: Dark Electro/EBM/Industrial Metal
*Country: United States (IMG:https://metalarea.org/forum/style_images/flags/United%20States.png)
*Format: mp3@CBR320kbps
*Size: 164MB

Tracklist:
01. Chemical Coma 4:20
02. Bathe In The Blood Of Our Enemies 6:00
03. The One 4:48
04. Breathe 7:38
05. Self-Righteous Affliction 5:39
06. My Friend Misery 4:24
07. Let Go 5:11
08. Salvation 6:28
09. Automation 4:51
10. The Killer 6:04
11. Repeating 5:32
12. Feast 4:12
13. Rise Up 5:20
******************************
Total playing time: 1:10:27

Extended info


Technical info
(IMG:https://metalarea.org/images/spectrogram/2017_Oct/649c9ca7aed5ffd54441658b926aef39.png)
Input File: 01. Chemical Coma.mp3
Channels : 2
Sample Rate : 44100
Precision : 16-bit
Duration : 00:04:19.63 = 11449771 samples = 19472.4 CDDA sectors
File Size : 10.7M
Bit Rate : 329k
Sample Encoding: MPEG audio (layer I, II or III)
Comments :
Title=Chemical Coma
Artist=Machines On Blast
Album=Tin Man Empire
Tracknumber=01/13
Year=2016
Genre=Electronic



Register


Thanks:
(1) gwar,
Вернуться к началу страницы
  Insert nick Quick quote
+Цитировать сообщение

ОтветитьСоздать новую тему
1 User(s) are reading this topic (1 Guests and 0 Anonymous Users)
0 Members:

 



- Lo-Fi Version Support form
Copyrights and abuse reports form
Time is now: 19th February 2018 - 20:44:52