Welcome Guest ( Log In | Register )

> И неформату есть предел.

Рэп/хип-хоп/шансон/поп удаляются. Для них есть свои порталы.

> All Pigs Must Die - Hostage Animal (2017), Chaotic Hardcore (D6)
post Oct 3 2017, 20:19:13
Post #1
BAN
Banned till
Oct 23 2018, 12:27:08



(IMG:http://metalarea.org/images/audiocovers/2017_Oct/acov_tid295590_thumb.jpg)

*Artist: All Pigs Must Die
*Album: Hostage Animal
*Year: 2017
*Genre: Chaotic Hardcore
*Country: United States (IMG:http://metalarea.org/forum/style_images/flags/United%20States.png)
*Format: mp3@CBR320kbps
*Size: 77MB

Tracklist:
01. Hostage Animal
02. A Caustic Vision
03. Meditation of Violence
04. Slave Morality
05. End Without End
06. Blood Wet Teeth
07. Moral Purge
08. Cruelty Incarnate
09. The Whip
10. Heathen Reign
******************************
Total playing time: 34:59

(IMG:http://metalarea.org/images/youtube.png)

Technical info
(IMG:http://metalarea.org/images/spectrogram/2017_Oct/ca484701ca539729ff1287af1f5befdd.png)
Input File: 01. Hostage Animal.mp3
Channels : 2
Sample Rate : 44100
Precision : 16-bit
Duration : 00:03:01.49 = 8003797 samples = 13611.9 CDDA sectors
File Size : 7.26M
Bit Rate : 320k
Sample Encoding: MPEG audio (layer I, II or III)
Comments :
Title=Hostage Animal
Artist=All Pigs Must Die
Album=Hostage Animal
Tracknumber=01/10
Year=2017
Discnumber=1/1



Register


Go to the top of the page
  Insert nick Quick quote
+Quote Post
 
Start new topic
Replies (1 - 1)
post Oct 4 2017, 09:54:01
Post #2
BAN
Banned till
Oct 23 2018, 12:27:08



Считаются вроде как безумно бешеной и котируемой среди узкого круга ценителей стиля командой...
Go to the top of the page
  Insert nick Quick quote
+Quote Post

Reply to this topicStart new topic
1 User(s) are reading this topic (1 Guests and 0 Anonymous Users)
0 Members:

 



- Lo-Fi Version Support form
Copyrights and abuse reports form
Time is now: 19th September 2018 - 02:11:42